Ссылка на приватное зеркало всего за 1$. Внимание количество ограничено!!!

iTunes

1+1

iTunes

мы

MV0

1

WEB-DLRip

Джокер

Пифагор

Ведьмак / The Witcher сериал

iTunes

ПШазам

iTunes

Оно 2

iTunes

30
pack

Вам бонус

ВАЖНО

!!Акция!!

Alien_RageХит недели

RePack

Resident Evil 21

ИГРА 18+

pack

RePack

jed

!!Акция!!

Alien_Rage

RePack

fifa19

RePack

Assassins Creed: Odyssey

RePack

NEED FOR SPEED™ PAYBACK

4 сезон

9 сезон

Бесстыжие 9 сезон

Все сериалы

все сериалы на PB.wtf

RePack

FAR CRY 5
  

Окно в Париж (Юрий Мамин) [1993 г., фантастика, фэнтези, драма, комедия, DVDRip] pb.wtf

Окно в Париж через торрент pb.wtf

Размер: 1.45 GB | Добавлен: 1 год 2 мес. назад | Торрент скачан:35 раз
Скачать  

18-05-2015 16:49 Окно в Париж Скачать торрент  

Окно в Париж
Год выпуска: 1993
Страна: Россия
Жанр: фантастика, фэнтези, драма, комедия
Продолжительность: 01:52:02

Режиссер: Юрий Мамин

Продюссер: Лаврентий Эмрашвили, Ги Селигман, Алексей Козодаев
Сценарий: Вячеслав Лейкин, Юрий Мамин, Аркадий Тигай
Бюджет: $255 088
Премьера в мире: 13 февраля 1994

rating

В ролях: Аньес Сораль, Сергей Дрейден, Нина Усатова, Виктор Михайлов, Кира Крейлис-Петрова, Наталья Ипатова, Виктор Гоголев, Тамара Тимофеева, Андрей Ургант, Жан Руперт

Описание: После изрядного подпития обитатели коммуналки открывают окно... в Париж. С этого часа начинаются прогулки по городу грез, а также злоключения французских «гостей» на берегах Невы.

Качество: DVDRip
Формат: AVI
Видео кодек: XviD
Аудио кодек: AC3
Видео: 688x528 (1.30:1), 25 fps, XviD MPEG-4 ~1656 kbps avg, 0.18 bit/pixel
Аудио: (rus) 48 kHz, AC3 Dolby Digital, 2/0 (L,R) ch, ~192.00 kbps avg
скриншот   скриншот   скриншот   скриншот   скриншот   скриншот   скриншот  

Общее
Полное имя : C:\Users\sony\Downloads\Okno.v.Parij.1993_[torrents.ru].avi
Формат : AVI
Формат/Информация : Audio Video Interleave
Размер файла : 1,45 Гбайт
Продолжительность : 1 ч. 52 м.
Общий поток : 1858 Кбит/сек
Название фильма : Окно в Париж
Режиссёр : zim2001
Программа кодирования : VirtualDubMod 1.5.10.2 (build 2540/release)
Авторское право : torrents.ru

Видео
Идентификатор : 0
Формат : MPEG-4 Visual
Профиль формата : Advanced Simple@L5
Параметр BVOP формата : 1
Параметр QPel формата : Нет
Параметр GMC формата : Без точки перехода
Параметр матрицы формата : Выборочная
Идентификатор кодека : XVID
Идентификатор кодека/Подсказка : XviD
Продолжительность : 1 ч. 52 м.
Битрейт : 1656 Кбит/сек
Ширина : 688 пикселей
Высота : 528 пикселей
Соотношение сторон : 4:3
Частота кадров : 25,000 кадров/сек
Цветовое пространство : YUV
Субдискретизация насыщенности : 4:2:0
Битовая глубина : 8 бит
Тип развёртки : Прогрессивная
Метод сжатия : С потерями
Бит/(Пиксели*Кадры) : 0.182
Размер потока : 1,30 Гбайт (89%)
Библиотека кодирования : XviD 1.2.1 (UTC 2008-12-04)

Аудио
Идентификатор : 1
Формат : AC-3
Формат/Информация : Audio Coding 3
Расширение режима : CM (complete main)
Параметр Endianness формата : Big
Идентификатор кодека : 2000
Продолжительность : 1 ч. 52 м.
Вид битрейта : Постоянный
Битрейт : 192 Кбит/сек
Каналы : 2 канала
Расположение каналов : Front: L R
Частота : 48,0 КГц
Битовая глубина : 16 бит
Метод сжатия : С потерями
Размер потока : 154 Мбайт (10%)
Выравнивание : Разделение по промежуткам
Продолжительность промежутка : 40 мс. (1,00 видеокадр)
Время предзагрузки промежутка : 500 мс.

pb.wtf



Скачать Окно в Париж через торрент http://pic.kartinco.top/images/11/fz4h3.jpg Скачать фильм Окно в Париж через торрент бесплантно в хорошем качестве Описание: После изрядного подпития обитатели коммуналки открывают окно... в Париж. С этого часа начинаются прогулки по городу грез, а также ... 9.4 10 11
Info! Золотая раздача, скачанное не засчитывается.
Торрент: Зарегистрирован [2018-12-08 14:36] · скачан: 35 раз
Статус: √ проверено
Размер: 1.45 GB
Как cкачать? Как скачать Окно в Париж через торрент | qTorrent

28-11-2019 20:33  

Отключить всю рекламу на сайте

08-12-2018 20:00 Окно в Париж Скачать торрент  

Неужели на этот киношедевр не нашли денег ,что бы оцифровать его в хайди?pb.wtf



09-12-2018 17:49 Окно в Париж Скачать торрент  

90-е дерьмоpb.wtf



    Дорогой пользователь! Огромная просьба, поблагодарите релизера, оцените раздачу и оставьте свои комментарий, если Вы скачали Окно в Париж через торрент бесплатно! Внесите свою лепту в развитие PiratBit!
    Комментировать посты могут только пользователи прошедшие не сложную регистрацию
    Показать сообщения:    

    Окно в Париж через торрент
    Скачать бесплатно Окно в Париж
    Окно в Париж скачать торрент
    Окно в Париж смотреть онлайн
    Cкачать фильм Окно в Париж бесплатно
    Окно в Париж скачать торрент в хорошем качестве
    Окно в Париж смотреть онлайн бесплатно в хорошем качестве


    Вы не можете начинать темы
    Вы не можете отвечать на сообщения
    Вы не можете редактировать свои сообщения
    Вы не можете удалять свои сообщения
    Вы не можете голосовать в опросах
    Вы не можете прикреплять файлы к сообщениям
    Вы можете скачивать файлы