новый адрес
Ссылка на приватное зеркало всего за 1$. Внимание количество ограничено!!!

iTunes

1+1

iTunes

мы

WEB-DL

1

iTunes

Чернобыль

iTunes

Ральф против интернета

Лицензия

ПШазам

Лицензия

Оно 2

Лицензия

30
pack

Вам бонус

ВАЖНО

!!Акция!!

Alien_RageХит недели

RePack

Resident Evil 21

ИГРА 18+

pack

RePack

jed

!!Акция!!

Alien_Rage

RePack

fifa19

RePack

Assassins Creed: Odyssey

RePack

NEED FOR SPEED™ PAYBACK

3 сезон

9 сезон

Бесстыжие 9 сезон

Все сериалы

все сериалы на PB.wtf

RePack

FAR CRY 5
Ребята, катастрофически не хватает 1900р. для оплаты серверов за Октябрь (всвязи с блокировками трафик упал в 3 раза), 1-2р., выручайте.
  

Вечера на хуторе близ Диканьки (Александр Роу) [1961, СССР, фэнтези, мелодрама, комедия, WEB-DLRip от AVP Studio] pb.wtf

Вечера на хуторе близ Диканьки через торрент pb.wtf

Размер: 1.09 GB | Добавлен: 11 мес. назад | Торрент скачан:12 раз
Скачать  

13-12-2018 17:31 Вечера на хуторе близ Диканьки Скачать торрент  

Вечера на хуторе близ Диканьки
Страна: СССР
Производство: К/ст им. Горького

Жанр: фэнтези, мелодрама, комедия
Год выпуска: 1961
Продолжительность: 01:06:00

Перевод: Не требуется
Cубтитры: нет
Оригинальная аудиодорожка: русский

Режиссер: Александр Роу

В ролях:
Людмила Мызникова, Юрий Тавров, Александр Хвыля, Людмила Хитяева, Сергей Мартинсон, Анатолий Кубацкий, Вера Алтайская, Дмитрий Капка, Николай Яковченко, М. Сидорчук, Александр Радунский, Георгий Милляр...
Об актёрах подробней

Описание:
Прекрасная экранизация всеми любимого произведения Николая Васильевича Гоголя `Вечера на хуторе близ Диканьки` поставлена мастером сказочных кинопроизведений Александром Роу.. Прекрасные, удивительно точно подобранные актеры разыгрывают сказочную историю, произошедшую на хуторе близ Диканьки в "Ночь перед рождеством".

Источник: WEB-DL 1080p
Качество видео: WEB-DLRip
Формат видео: AVI

Видео: 720х544 (4:3), 25 fps, XviD ~ 1903 kbps avg, 0.194 bit/pixel
Аудио: 48 kHz, Dolby Digital AC3 5.1, 448 kbps

Раздача от:
Общее
Полное имя : Vechera.na.hutore.bliz.Dikanki.1961.WEB-DLRip_[New-team]_by_AVP_Studio.avi
Формат : AVI
Формат/Информация : Audio Video Interleave
Размер файла : 1,09 Гбайт
Продолжительность : 1 ч. 6 м.
Общий поток : 2361 Кбит/сек
Программа кодирования : VirtualDubMod 1.5.10.3 | www.virtualdub-fr.org || (build 2550/release)
Библиотека кодирования : VirtualDubMod build 2550/release

Видео
Идентификатор : 0
Формат : MPEG-4 Visual
Профиль формата : Advanced Simple@L5
Настройки формата : BVOP1 / Custom Matrix
Параметр BVOP формата : 1
Параметр QPel формата : Нет
Параметр GMC формата : Без точки перехода
Параметр матрицы формата : Выборочная
Идентификатор кодека : XVID
Идентификатор кодека/Подсказка : XviD
Продолжительность : 1 ч. 6 м.
Битрейт : 1903 Кбит/сек
Ширина : 720 пикселей
Высота : 544 пикселя
Соотношение сторон : 4:3
Частота кадров : 25,000 кадров/сек
Цветовое пространство : YUV
Субдискретизация насыщенности : 4:2:0
Битовая глубина : 8 бит
Тип развёртки : Прогрессивная
Метод сжатия : С потерями
Бит/(Пиксели*Кадры) : 0.194
Размер потока : 898 Мбайт (81%)
Библиотека кодирования : XviD 73

Аудио
Идентификатор : 1
Формат : AC-3
Формат/Информация : Audio Coding 3
Коммерческое название : Dolby Digital
Идентификатор кодека : 2000
Продолжительность : 1 ч. 6 м.
Вид битрейта : Постоянный
Битрейт : 448 Кбит/сек
Каналы : 6 каналов
Channel layout : L R C LFE Ls Rs
Частота : 48,0 КГц
Частота кадров : 31,250 кадров/сек (1536 SPF)
Битовая глубина : 16 бит
Метод сжатия : С потерями
Размер потока : 211 Мбайт (19%)
Выравнивание : Разделение по промежуткам
Продолжительность промежутка : 40 мс. (1,00 видеокадр)
Время предзагрузки промежутка : 500 мс
pb.wtf



Скачать Вечера на хуторе близ Диканьки через торрент http://c.radikal.ru/c38/1911/90/d470e5b07119.png Скачать фильм Вечера на хуторе близ Диканьки через торрент бесплантно в хорошем качестве Описание:Прекрасная экранизация всеми любимого произведения Николая Васильевича Гоголя `Вечера на хуторе близ Диканьки` поставлена мастером ... 10 10 2
Info! Золотая раздача, скачанное не засчитывается.
Торрент: Зарегистрирован [2018-12-14 08:11] · скачан: 12 раз
Статус: √ проверено
Размер: 1.09 GB
Как cкачать? Как скачать Вечера на хуторе близ Диканьки через торрент | qTorrent

% Раздел Тема Автор DL S | L
Кино СССР [ 1.46 GB ] Вечера на хуторе близ Диканьки [1961 СССР WEB-DLRip 720p от AVP Studio] AVP Studio Скачать
16 | 0
Кино СССР [ 1.09 GB ] Вечера на хуторе близ Диканьки [1961 СССР WEB-DLRip-AVC от AVP Studio] AVP Studio Скачать
1 | 0
Кино СССР [ 1.37 GB ] Вечера на хуторе близ Диканьки [1961 сказка DVDRip лицензия] B@rt Скачать
1 | 0
Кино СССР [ 700 MB ] Вечера на хуторе близ Диканьки [1961 ... DVDRip Пиратка] boromir9 Скачать
1 | 0


Последний раз редактировалось: AVP Studio (2019-11-20 10:50), всего редактировалось 1 раз

28-11-2019 20:33  

Отключить всю рекламу на сайте

14-12-2018 08:13 Вечера на хуторе близ Диканьки Скачать торрент  

Нашел более качественный исходник, картинка супер.
Переделал, если есть желание перекачайте, фильм стоит этого.pb.wtf



    Дорогой пользователь! Огромная просьба, поблагодарите релизера, оцените раздачу и оставьте свои комментарий, если Вы скачали Вечера на хуторе близ Диканьки через торрент бесплатно! Внесите свою лепту в развитие PiratBit!
    Комментировать посты могут только пользователи прошедшие не сложную регистрацию
    Показать сообщения:    

    Вечера на хуторе близ Диканьки через торрент
    Скачать бесплатно Вечера на хуторе близ Диканьки
    Вечера на хуторе близ Диканьки скачать торрент
    Вечера на хуторе близ Диканьки смотреть онлайн
    Cкачать фильм Вечера на хуторе близ Диканьки бесплатно
    Вечера на хуторе близ Диканьки скачать торрент в хорошем качестве
    Вечера на хуторе близ Диканьки смотреть онлайн бесплатно в хорошем качестве


    Вы не можете начинать темы
    Вы не можете отвечать на сообщения
    Вы не можете редактировать свои сообщения
    Вы не можете удалять свои сообщения
    Вы не можете голосовать в опросах
    Вы не можете прикреплять файлы к сообщениям
    Вы можете скачивать файлы