новый адрес
Ссылка на приватное зеркало всего за 1$. Внимание количество ограничено!!!

iTunes

1+1

iTunes

мы

WEB-DL

1

iTunes

Чернобыль

iTunes

Ральф против интернета

Лицензия

ПШазам

Лицензия

Оно 2

Лицензия

30
pack

Вам бонус

ВАЖНО

!!Акция!!

Alien_RageХит недели

RePack

Resident Evil 21

ИГРА 18+

pack

RePack

jed

!!Акция!!

Alien_Rage

RePack

fifa19

RePack

Assassins Creed: Odyssey

RePack

NEED FOR SPEED™ PAYBACK

3 сезон

9 сезон

Бесстыжие 9 сезон

Все сериалы

все сериалы на PB.wtf

RePack

FAR CRY 5
Ребята, катастрофически не хватает 1900р. для оплаты серверов за Октябрь (всвязи с блокировками трафик упал в 3 раза), 1-2р., выручайте.
  

Крысы, или Ночная мафия (Евгений Васильев, Юрий Музыка) [1991 г., Криминальный боевик, WEBRip 720p] pb.wtf

Крысы, или Ночная мафия через торрент pb.wtf

Размер: 4.29 GB | Добавлен: 11 мес. назад | Торрент скачан:11 раз
Скачать  

15-12-2018 19:01 Крысы, или Ночная мафия Скачать торрент  

Крысы или Ночная мафия
Год выпуска: 1991
Страна: СССР
Жанр: Криминальный боевик
Продолжительность: 01:29:21
Субтитры: Отсутствуют

Режиссер: Евгений Васильев, Юрий Музыка

rating

В ролях: Мартиньш Вилсонс, Иван Рыжов, Юрий Саранцев, Ион Аракелу, Паул Буткевич, Наталия Полищук, Александр Яковлев

Описание: Бывший детдомовец, отсидев срок за драку, возвращается в родной город, терроризируемый местной мафией. Не желая мириться с их преступными законами, герой мужественно вступает в схватку...

Качество: WEBRip 720p
Формат: MKV
Видео кодек: AVC
Аудио кодек: AC3
Видео: AVC, 940x720 , 25 fps, 6529 Kbps
Аудио#1: AC3 , 2 ch , 48 kHz , 224 kbps
скриншот   скриншот   скриншот   скриншот  
x264 [info]: frame I:697 Avg QP:16.75 size:144386
x264 [info]: frame P:32851 Avg QP:18.24 size: 80935
x264 [info]: frame B:99516 Avg QP:20.81 size: 16831
x264 [info]: consecutive B-frames: 2.8% 4.0% 12.6% 22.7% 27.3% 29.9% 0.6% 0.1% 0.0% 0.0%
Общее
Уникальный идентификатор : 171724272186258903710331379549128229931 (0x8130E44CE2647E3082B52BC10F56042B)
Полное имя : D:Крысы, или Ночная мафия_1991-WEBRip 720o_KORSAR.mkv
Формат : Matroska
Версия формата : Version 2
Размер файла : 4,29 Гбайт
Продолжительность : 1 ч. 28 м.
Общий поток : 6923 Кбит/сек
Название фильма : Крысы, или Ночная мафия_1991-WEBRip 720o_KORSAR
Дата кодирования : UTC 2018-12-12 11:05:14
Программа кодирования : mkvmerge v5.8.0 ('No Sleep / Pillow') built on Sep 2 2012 15:37:04
Библиотека кодирования : libebml v1.2.3 + libmatroska v1.3.0

Видео
Идентификатор : 1
Формат : AVC
Формат/Информация : Advanced Video Codec
Профиль формата : High@L4.1
Параметр CABAC формата : Да
Параметр ReFrames формата : 12 кадров
Идентификатор кодека : V_MPEG4/ISO/AVC
Продолжительность : 1 ч. 28 м.
Битрейт : 6529 Кбит/сек
Ширина : 940 пикселей
Высота : 720 пикселей
Соотношение сторон : 4:3
Режим частоты кадров : Постоянный
Частота кадров : 25,000 кадров/сек
Цветовое пространство : YUV
Субдискретизация насыщенности : 4:2:0
Битовая глубина : 8 бит
Тип развёртки : Прогрессивная
Бит/(Пиксели*Кадры) : 0.386
Размер потока : 4,05 Гбайт (94%)
Библиотека кодирования : x264 core 152 r2851kMod ba24899
Настройки программы : cabac=1 / ref=12 / deblock=1:-2:-2 / analyse=0x3:0x113 / me=umh / subme=10 / psy=1 / fade_compensate=0.00 / psy_rd=1.05:0.10 / mixed_ref=1 / me_range=32 / chroma_me=1 / trellis=2 / 8x8dct=1 / cqm=0 / deadzone=21,11 / fast_pskip=1 / chroma_qp_offset=-3 / threads=12 / lookahead_threads=2 / sliced_threads=0 / nr=0 / decimate=1 / interlaced=0 / bluray_compat=0 / constrained_intra=0 / bframes=9 / b_pyramid=2 / b_adapt=2 / b_bias=0 / direct=1 / weightb=1 / open_gop=0 / weightp=2 / keyint=250 / keyint_min=25 / scenecut=40 / intra_refresh=0 / rc=crf / mbtree=0 / crf=18.0000 / qcomp=0.63 / qpmin=0 / qpmax=45 / qpstep=4 / ip_ratio=1.40 / pb_ratio=1.30 / aq=1:1.00
Язык : English
Default : Да
Forced : Нет
Основные цвета : BT.709
Характеристики трансфера : BT.709
Коэффициенты матрицы : BT.709

Аудио
Идентификатор : 2
Формат : AC-3
Формат/Информация : Audio Coding 3
Расширение режима : CM (complete main)
Параметр Endianness формата : Big
Идентификатор кодека : A_AC3
Продолжительность : 1 ч. 28 м.
Вид битрейта : Постоянный
Битрейт : 256 Кбит/сек
Каналы : 2 канала
Расположение каналов : Front: L R
Частота : 48,0 КГц
Битовая глубина : 16 бит
Метод сжатия : С потерями
Размер потока : 162 Мбайт (4%)
Язык : Russian
Default : Да
Forced : Нет
pb.wtf



Скачать Крысы, или Ночная мафия через торрент http://pic1.kartinco.top/images/12/rofp9.jpg Скачать фильм Крысы, или Ночная мафия через торрент бесплантно в хорошем качестве Описание: Бывший детдомовец, отсидев срок за драку, возвращается в родной город, терроризируемый местной мафией. Не желая мириться с их ... 10 10 5
Info! Золотая раздача, скачанное не засчитывается.
Торрент: Зарегистрирован [2018-12-15 19:01] · скачан: 11 раз
Статус: √ проверено
Размер: 4.29 GB
Как cкачать? Как скачать Крысы, или Ночная мафия через торрент | qTorrent



Последний раз редактировалось: Скорпион1976 (2018-12-16 06:34), всего редактировалось 1 раз

28-11-2019 20:33  

Отключить всю рекламу на сайте

15-12-2018 19:44 Крысы, или Ночная мафия Скачать торрент  

Топик был перенесен из форума Кино СССР в форум Для пробных / тестовых / неоформленых раздач


schultzpb.wtf



16-12-2018 06:25 Крысы, или Ночная мафия Скачать торрент  

Топик был перенесен из форума Для пробных / тестовых / неоформленых раздач в форум Кино СССР


schultzpb.wtf



    Дорогой пользователь! Огромная просьба, поблагодарите релизера, оцените раздачу и оставьте свои комментарий, если Вы скачали Крысы, или Ночная мафия через торрент бесплатно! Внесите свою лепту в развитие PiratBit!
    Комментировать посты могут только пользователи прошедшие не сложную регистрацию
    Показать сообщения:    

    Крысы, или Ночная мафия через торрент
    Скачать бесплатно Крысы, или Ночная мафия
    Крысы, или Ночная мафия скачать торрент
    Крысы, или Ночная мафия смотреть онлайн
    Cкачать фильм Крысы, или Ночная мафия бесплатно
    Крысы, или Ночная мафия скачать торрент в хорошем качестве
    Крысы, или Ночная мафия смотреть онлайн бесплатно в хорошем качестве


    Вы не можете начинать темы
    Вы не можете отвечать на сообщения
    Вы не можете редактировать свои сообщения
    Вы не можете удалять свои сообщения
    Вы не можете голосовать в опросах
    Вы не можете прикреплять файлы к сообщениям
    Вы можете скачивать файлы