Ссылка на приватное зеркало нашего сайта всего за 1$. Внимание количество ограничено!!!

2 сезон

iTunes

1 сезон

1

iTunes

iTunes

iTunes

1 сезон

RePack

30

ИГРА 18+

pack

ВАЖНО

!!Акция!!

Alien_RageХит недели

RePack

MK11
pack

Забери бонус

RePack

jed

!!Акция!!

Alien_Rage

RePack

fifa19

RePack

Assassins Creed: Odyssey

RePack

NEED FOR SPEED™ PAYBACK

4 сезон

9 сезон

Бесстыжие 9 сезон

Все сериалы

все сериалы на PB.wtf

RePack

FAR CRY 5
  

Немезида 5: Новая модель / Nemesis 5: The New Model (Дастин Фергюсон) [2017, Фантастика, WEB-DL 720p] MVO ["Синема УС"] pb.wtf

Немезида 5: Новая модель через торрент pb.wtf

Размер: 2.37 GB | Добавлен: 1 год 10 мес. назад | Торрент скачан:60 раз
Скачать  

23-12-2018 12:10 Немезида 5: Новая модель Скачать торрент  

Немезида 5: Новая модель / Nemesis 5: The New Model
Год выпуска: 2017
Страна: США
Жанр: Фантастика
Продолжительность: 01:13:25
Перевод: Любительский (многоголосый) | "Синема УС"
Субтитры: отсутствуют

Режиссер: Дастин Фергюсон

rating

В ролях:

Дайан Азура, Даррен Баркомб, Клинт Бивер, Колби Коаш, Шуйлар Крейг, Эдвин Гарсия, Лиа Хавлена, Дона Ли Хейсинг, Роберт Лэнкфорд, Кристал Милани

Описание:

В 2077 году террористическая организация, известная как Красная Армия Молотоголовых, доминирует на Земле. Судьба человечества лежит в руках Новой Модели- Ари Фрост. Она должна организовать людей-киборгов, чтобы свергнуть режим и восстановить контроль над планетой.

Качество: WEB-DL 720p
Формат: MKV

Видео: h.264, 4 242 kb/s, 1280x564
Аудио#1: Русский, (AC3, 2 ch, 384 Кбит/с)
скриншот  скриншот  скриншот  

Общее
Уникальный идентификатор : 190226693331689515221411700357160482891 (0x8F1C5417FB3BE0CB96F2C7930CA7B84B)
Полное имя : D:\Nemesis.5.2017.P.WEB-DL.72Op_KOSHARA.mkv
Формат : Matroska
Версия формата : Version 2
Размер файла : 2,37 Гбайт
Продолжительность : 1 ч. 13 м.
Режим общего битрейта : Переменный
Общий поток : 4627 Кбит/сек
Дата кодирования : UTC 2018-12-22 21:09:52
Программа кодирования : mkvmerge v8.3.0 ('Over the Horizon') 64bit
Библиотека кодирования : libebml v1.3.1 + libmatroska v1.4.2

Видео
Идентификатор : 1
Формат : AVC
Формат/Информация : Advanced Video Codec
Профиль формата : High@L4.1
Параметр CABAC формата : Да
Параметр RefFrames формата : 4 кадра
Идентификатор кодека : V_MPEG4/ISO/AVC
Продолжительность : 1 ч. 13 м.
Вид битрейта : Переменный
Битрейт : 4242 Кбит/сек
Максимальный битрейт : 5000 Кбит/сек
Ширина : 1280 пикселей
Высота : 564 пикселя
Соотношение сторон : 2,25:1
Режим частоты кадров : Постоянный
Частота кадров : 23,976 (24000/1001) кадра/сек
Стандарт вещания : Component
Цветовое пространство : YUV
Субдискретизация насыщенности : 4:2:0
Битовая глубина : 8 бит
Тип развёртки : Прогрессивная
Бит/(Пиксели*Кадры) : 0.240
Размер потока : 2,13 Гбайт (90%)
Default : Да
Forced : Нет
Цветовой диапазон : Limited
Основные цвета : BT.709
Характеристики трансфера : BT.709
Коэффициенты матрицы : BT.709

Аудио
Идентификатор : 2
Формат : AC-3
Формат/Информация : Audio Coding 3
Расширение режима : CM (complete main)
Параметр Endianness формата : Big
Идентификатор кодека : A_AC3
Продолжительность : 1 ч. 13 м.
Вид битрейта : Постоянный
Битрейт : 384 Кбит/сек
Каналы : 2 канала
Расположение каналов : Front: L R
Частота : 48,0 КГц
Частота кадров : 31,250 кадров/сек (1536 spf)
Метод сжатия : С потерями
Размер потока : 202 Мбайт (8%)
Default : Да
Forced : Нет

pb.wtf



Скачать Немезида 5: Новая модель через торрент https://a.radikal.ru/a21/1812/62/18aa94c8aae8.jpg Скачать фильм Немезида 5: Новая модель через торрент бесплантно в хорошем качестве Описание: В 2077 году террористическая организация, известная как Красная Армия Молотоголовых, доминирует на Земле. Судьба человечества ... 10 10 3
Торрент: Зарегистрирован [2018-12-23 12:10] · скачан: 60 раз
Статус: T временная
Размер: 2.37 GB
Как cкачать? Как скачать Немезида 5: Новая модель через торрент | qTorrent

% Раздел Тема Автор DL S | L
T Фильмы (мультфильмы) cо спонсором показа (Новинки AVI/MKV) [ 1.37 GB ] Немезида 5: Новая модель / Nemesis 5: The New Model [2017 WEB-DLRip] MVO ["Синема УС"] bober100 Скачать
1 | 0

28-11-2019 20:33  

Отключить всю рекламу на сайте

23-12-2018 13:07 Немезида 5: Новая модель Скачать торрент  

Доккументалка про россию?pb.wtf



23-12-2018 15:01 Немезида 5: Новая модель Скачать торрент  

PIXELINTERLAN писал(а):

Доккументалка про россию?

да. они ещё в 92м всё уже знали.pb.wtf



23-12-2018 15:31 Немезида 5: Новая модель Скачать торрент  

Самокритика для сшп-большая редкость. pb.wtf



23-12-2018 17:59 Немезида 5: Новая модель Скачать торрент  

ded 4ernomor писал(а):

Самокритика для сшп-большая редкость.

Во всяком случае ,за нее там не сажают ,в отличии от мордора ))pb.wtf



    Дорогой пользователь! Огромная просьба, поблагодарите релизера, оцените раздачу и оставьте свои комментарий, если Вы скачали Немезида 5: Новая модель через торрент бесплатно! Внесите свою лепту в развитие PiratBit!
    Комментировать посты могут только пользователи прошедшие не сложную регистрацию
    Показать сообщения:    

    Немезида 5: Новая модель через торрент
    Скачать бесплатно Немезида 5: Новая модель
    Немезида 5: Новая модель скачать торрент
    Немезида 5: Новая модель смотреть онлайн
    Cкачать фильм Немезида 5: Новая модель бесплатно
    Немезида 5: Новая модель скачать торрент в хорошем качестве
    Немезида 5: Новая модель смотреть онлайн бесплатно в хорошем качестве


    Вы не можете начинать темы
    Вы не можете отвечать на сообщения
    Вы не можете редактировать свои сообщения
    Вы не можете удалять свои сообщения
    Вы не можете голосовать в опросах
    Вы не можете прикреплять файлы к сообщениям
    Вы можете скачивать файлы