Ссылка на приватное зеркало нашего сайта всего за 1$. Внимание количество ограничено!!!

2 сезон

iTunes

1 сезон

1

2 сезон

2 сезон

iTunes

1 сезон

RePack

30

Ultimate

ВАЖНО

ИГРА 18+

pack

RePack

MK11
pack

Забери бонус

RePack

jed

!!Акция!!

Alien_Rage

RePack

fifa19

RePack

Assassins Creed: Odyssey

RePack

NEED FOR SPEED™ PAYBACK

4 сезон

9 сезон

Бесстыжие 9 сезон

Все сериалы

все сериалы на PB.wtf

RePack

FAR CRY 5
  

Вышибала / Сезон: 1 / Серии: 1-16 из 16 (Сергей Крутин) [2016, Криминал, драма, HDTVRip-AVC] pb.wtf

Вышибала через торрент pb.wtf

Размер: 11.05 GB | Добавлен: 1 год 11 мес. назад | Торрент скачан:65 раз
Скачать  

23-12-2018 18:59 Вышибала Скачать торрент  

ВышибалаГод выпуска: 2016
Страна: Россия
Жанр: Криминал, драма
Продолжительность: ~00:45:00
Перевод: не требуется
Субтитры: отсутствуют

Режиссер: Сергей Крутин



В ролях:

Дмитрий Марьянов, Анастасия Панина, Гела Месхи, Мария Машкова, Александр Наумов, Владимир Фекленко, Надежда Маркина, Константин Юшкевич, Ян Цапник, Семён Трескунов, Анна Казючиц, Олег Васильков, Леонид Тимцуник, Фёдор Лавров, Лилия Лаврова, Аксиния Пустыльникова, Екатерина Давыдова-Тонгур, Роман Синицын

Описание:

После отсидки на волю выходит Александр Чижов, по прозвищу Чижик. Пятнадцать лет назад он состоял в Тополевской ОПГ и взял вину за убийство на себя, хотя на самом деле был ни в чем не виноват. Настоящий душегуб, глава тополевской браты Николай Регунов по кличке Гуня, в благодарность за это дал деньги на лечение отца Чижика от онкологии. Бывшая любовь Чижика Наталья Климцова не стала дожидаться сидельца и стала женой Гуни. Ныне Гуня бизнесмен со связями. Он организует хороший прием в честь возвращения Чижика, там же была и Наташа. При взгляде друг на друга между ними опять начинает зарождаться высокое чувство.

Качество: HDTVRip-AVC
Формат: MKV

Видео: MPEG-4 AVC, ~ 2000 Кбит/с, 1024x576, 25 кадр/с
Аудио: Русский (AC3, 2 ch, 192 Кбит/с)
скриншот  скриншот  скриншот  скриншот  скриншот  

Общее
Уникальный идентификатор : 245610056635422294358419762102719560316 (0xB8C6C6B9BDA86ED0B272760F2E5D3A7C)
Полное имя : E:\Vychibala.2016.HDTVRip.(AVC).Files-x\Vyshibala.(01.seriya.iz.16).2016.HDTVRip.(AVC).by.Серый1779.Files-x.mkv
Формат : Matroska
Версия формата : Version 2
Размер файла : 713 Мбайт
Продолжительность : 45 м. 28 с.
Общий поток : 2193 Кбит/сек
Дата кодирования : UTC 2016-06-07 04:02:58
Программа кодирования : mkvmerge v6.1.0 ('Old Devil') built on Mar 4 2013 09:10:42
Библиотека кодирования : libebml v1.3.0 + libmatroska v1.4.0

Видео
Идентификатор : 1
Формат : AVC
Формат/Информация : Advanced Video Codec
Профиль формата : High@L4.1
Настройки формата : CABAC / 9 Ref Frames
Параметр CABAC формата : Да
Параметр RefFrames формата : 9 кадров
Идентификатор кодека : V_MPEG4/ISO/AVC
Продолжительность : 45 м. 28 с.
Битрейт : 2000 Кбит/сек
Ширина : 1024 пикселя
Высота : 576 пикселей
Соотношение сторон : 16:9
Режим частоты кадров : Постоянный
Частота кадров : 25,000 кадров/сек
Цветовое пространство : YUV
Субдискретизация насыщенности : 4:2:0
Битовая глубина : 8 бит
Тип развёртки : Прогрессивная
Бит/(Пиксели*Кадры) : 0.136
Размер потока : 637 Мбайт (89%)
Библиотека кодирования : x264 core 130 r2273 b3065e6
Настройки программы : cabac=1 / ref=9 / deblock=1:-2:-1 / analyse=0x3:0x133 / me=umh / subme=9 / psy=1 / psy_rd=1.00:0.15 / mixed_ref=1 / me_range=32 / chroma_me=1 / trellis=2 / 8x8dct=1 / cqm=0 / deadzone=21,11 / fast_pskip=0 / chroma_qp_offset=-3 / threads=6 / lookahead_threads=1 / sliced_threads=0 / nr=0 / decimate=1 / interlaced=0 / bluray_compat=0 / constrained_intra=0 / bframes=9 / b_pyramid=2 / b_adapt=2 / b_bias=0 / direct=1 / weightb=1 / open_gop=0 / weightp=2 / keyint=250 / keyint_min=25 / scenecut=40 / intra_refresh=0 / rc=2pass / mbtree=0 / bitrate=2000 / ratetol=1.0 / qcomp=0.60 / qpmin=0 / qpmax=69 / qpstep=4 / cplxblur=20.0 / qblur=0.5 / ip_ratio=1.40 / pb_ratio=1.30 / aq=2:1.00
Default : Да
Forced : Нет
Цветовой диапазон : Limited
Основные цвета : BT.709
Характеристики трансфера : BT.709
Коэффициенты матрицы : BT.709

Аудио
Идентификатор : 2
Формат : AC-3
Формат/Информация : Audio Coding 3
Идентификатор кодека : A_AC3
Продолжительность : 45 м. 28 с.
Вид битрейта : Постоянный
Битрейт : 192 Кбит/сек
Каналы : 2 канала
Расположение каналов : Front: L R
Частота : 48,0 КГц
Частота кадров : 31,250 кадров/сек (1536 SPF)
Битовая глубина : 16 бит
Метод сжатия : С потерями
Размер потока : 62,5 Мбайт (9%)
ServiceKind/String : Complete Main
Default : Да
Forced : Нет

pb.wtf



Скачать Вышибала через торрент http://i77.fastpic.ru/big/2016/0615/da/3a2287674dba3109171f9622cdd470da.jpg Скачать фильм Вышибала через торрент бесплантно в хорошем качестве Описание: После отсидки на волю выходит Александр Чижов, по прозвищу Чижик. Пятнадцать лет назад он состоял в Тополевской ОПГ и взял вину ... 10 10 7
Торрент: Зарегистрирован [2018-12-23 18:59] · скачан: 65 раз
Статус: √ проверено
Размер: 11.05 GB
Как cкачать? Как скачать Вышибала через торрент | qTorrent

% Раздел Тема Автор DL S | L
Наши сериалы [ 9.75 GB ] Вышибала / Сезон: 1 / Серии: 1-16 из 16 [2016 SATRip] bober100 Скачать
1 | 0
Наши сериалы [ 24.89 GB ] Вышибала / Сезон: 1 / Серии: 1-16 из 16 [2016 HDTVRip 720p] bober100 Скачать
1 | 0
Наши сериалы [ 42.64 GB ] Вышибала / Сезон: 1 / Серии: 1-16 из 16 [2016 HDTV 1080i] bober100 Скачать
1 | 0
Наши сериалы [ 8.6 GB ] Вышибала / Сезон: 1 / Серия 1-16 [2016 HDTVRip] nn99nn Скачать
1 | 0

28-11-2019 20:33  

Отключить всю рекламу на сайте

    Дорогой пользователь! Огромная просьба, поблагодарите релизера, оцените раздачу и оставьте свои комментарий, если Вы скачали Вышибала через торрент бесплатно! Внесите свою лепту в развитие PiratBit!
    Комментировать посты могут только пользователи прошедшие не сложную регистрацию
    Показать сообщения:    

    Вышибала через торрент
    Скачать бесплатно Вышибала
    Вышибала скачать торрент
    Вышибала смотреть онлайн
    Cкачать фильм Вышибала бесплатно
    Вышибала скачать торрент в хорошем качестве
    Вышибала смотреть онлайн бесплатно в хорошем качестве


    Вы не можете начинать темы
    Вы не можете отвечать на сообщения
    Вы не можете редактировать свои сообщения
    Вы не можете удалять свои сообщения
    Вы не можете голосовать в опросах
    Вы не можете прикреплять файлы к сообщениям
    Вы можете скачивать файлы