Ссылка на приватное зеркало всего за 1$. Внимание количество ограничено!!!

OK

1+1

iTunes

мы

OK

1

WEB-DLRip

Джокер

Пифагор

Ведьмак / The Witcher сериал

Лицензия

ПШазам

ОК

Оно 2

iTunes

30
pack

Вам бонус

ВАЖНО

!!Акция!!

Alien_RageХит недели

RePack

Resident Evil 21

ИГРА 18+

pack

RePack

jed

RePack

fifa19

RePack

Assassins Creed: Odyssey

RePack

NEED FOR SPEED™ PAYBACK

4 сезон

9 сезон

Бесстыжие 9 сезон

Все сериалы

все сериалы на PB.wtf

RePack

FAR CRY 5
  

Необыкновенное путешествие Мишки Стрекачёва (Илья Фрэз, Эдуард Бочаров) [1959, СССР, семейный, SATRip от AVP Studio] pb.wtf

Необыкновенное путешествие Мишки Стрекачёва через торрент pb.wtf

Размер: 1.09 GB | Добавлен: 2 года 2 мес. назад | Торрент скачан:21 раз
Скачать  

05-11-2017 09:36 Необыкновенное путешествие Мишки Стрекачёва Скачать торрент  

Необыкновенное путешествие Мишки Стрекачёва
Страна: СССР
Производство: Киностудия им. Горького

Жанр: семейный
Год выпуска: 1959
Продолжительность: 01:22:16

Перевод: Не требуется
Cубтитры: нет
Оригинальная аудиодорожка: русский

Режиссер: Илья Фрэз, Эдуард Бочаров

В ролях:
Алексей Борзунов, Лена Шептицкая, Слава Девкин, Рая Николаева, Миша Копытов, Саша Вдовин, Константин Сорокин, Виктор Хохряков, Михаил Трояновский, Георгий Гумилевский, Валерий Носик, Пётр Алейников, Татьяна Пельтцер, Валентина Телегина, Евгений Кудряшёв, Алексей Грибов...
Об актёрах подробней

Описание:
Однажды на заводе изготовили сверх плана партию комбайнов. Их решили отправить в подшефный совхоз на целину. Группа учеников ремесленного училища, обучавшаяся на этом заводе, завоевала честь сопровождать эти комбайны. Мишка Стрекачёв (Алексей Борзунов), единственный человек из группы, которого за провинность не взяли на целину, совершил новый проступок. Он снял с нового комбайна шестерёнку, желая выручить подругу, «запоровшую» деталь.

Источник: DVB
Качество видео: SATRip
Формат видео: AVI

Видео: 688x512 (4:3), 25 fps, XviD ~ 1692 kbps avg, 0.192 bit/pixel
Аудио: 48 kHz, Dolby Digital AC3 2.0, 192 kbps

Раздача от:
Общее
Полное имя : Neobyknovennoe.puteshestvie.Mishki.Strekacheva.1959.SATRip_[New-team]_by_AVP_Studio.avi
Формат : AVI
Формат/Информация : Audio Video Interleave
Размер файла : 1,09 Гбайт
Продолжительность : 1 ч. 22 м.
Общий поток : 1894 Кбит/сек
Программа кодирования : VirtualDubMod 1.5.10.3 | www.virtualdub-fr.org || (build 2550/release)
Библиотека кодирования : VirtualDubMod build 2550/release

Видео
Идентификатор : 0
Формат : MPEG-4 Visual
Профиль формата : Advanced Simple@L5
Параметр BVOP формата : 1
Параметр QPel формата : Нет
Параметр GMC формата : Без точки перехода
Параметр матрицы формата : Выборочная
Идентификатор кодека : XVID
Идентификатор кодека/Подсказка : XviD
Продолжительность : 1 ч. 22 м.
Битрейт : 1692 Кбит/сек
Ширина : 688 пикселей
Высота : 512 пикселей
Соотношение сторон : 4:3
Частота кадров : 25,000 кадров/сек
Цветовое пространство : YUV
Субдискретизация насыщенности : 4:2:0
Битовая глубина : 8 бит
Тип развёртки : Прогрессивная
Метод сжатия : С потерями
Бит/(Пиксели*Кадры) : 0.192
Размер потока : 996 Мбайт (89%)
Библиотека кодирования : XviD 73

Аудио
Идентификатор : 1
Формат : AC-3
Формат/Информация : Audio Coding 3
Параметр Endianness формата : Big
Идентификатор кодека : 2000
Продолжительность : 1 ч. 22 м.
Вид битрейта : Постоянный
Битрейт : 192 Кбит/сек
Каналы : 2 канала
Расположение каналов : Front: L R
Частота : 48,0 КГц
Частота кадров : 31,250 кадров/сек (1536 SPF)
Битовая глубина : 16 бит
Метод сжатия : С потерями
Размер потока : 113 Мбайт (10%)
Выравнивание : Разделение по промежуткам
Продолжительность промежутка : 40 мс. (1,00 видеокадр)
Время предзагрузки промежутка : 500 мс
pb.wtf



Скачать Необыкновенное путешествие Мишки Стрекачёва через торрент http://s019.radikal.ru/i627/1711/78/1985481de8b4.png Скачать фильм Необыкновенное путешествие Мишки Стрекачёва через торрент бесплантно в хорошем качестве Описание:Однажды на заводе изготовили сверх плана партию комбайнов. Их решили отправить в подшефный совхоз на целину. Группа учеников ... 10 10 1
Info! Золотая раздача, скачанное не засчитывается.
Торрент: Зарегистрирован [2017-11-05 09:36] · скачан: 21 раз
Статус: √ проверено
Размер: 1.09 GB
Как cкачать? Как скачать Необыкновенное путешествие Мишки Стрекачёва через торрент | qTorrent

% Раздел Тема Автор DL S | L
Детские отечественные фильмы [ 1.09 GB ] Необыкновенное путешествие Мишки Стрекачёва [1959 СССР SATRip-AVC от AVP Studio] AVP Studio Скачать
1 | 0
Детские отечественные фильмы [ 745 MB ] Необыкновенное путешествие Мишки Стрекачёва [1959 СССР SATRip от AVP Studio] AVP Studio Скачать
1 | 0

28-11-2019 20:33  

Отключить всю рекламу на сайте

05-11-2017 11:21 Необыкновенное путешествие Мишки Стрекачёва Скачать торрент  

Топик был перенесен из форума Кино СССР в форум Детские отечественные фильмы


bober100pb.wtf



25-12-2018 15:38 Необыкновенное путешествие Мишки Стрекачёва Скачать торрент  

Прекрасный добрый фильм моего детства.pb.wtf



    Дорогой пользователь! Огромная просьба, поблагодарите релизера, оцените раздачу и оставьте свои комментарий, если Вы скачали Необыкновенное путешествие Мишки Стрекачёва через торрент бесплатно! Внесите свою лепту в развитие PiratBit!
    Комментировать посты могут только пользователи прошедшие не сложную регистрацию
    Показать сообщения:    

    Необыкновенное путешествие Мишки Стрекачёва через торрент
    Скачать бесплатно Необыкновенное путешествие Мишки Стрекачёва
    Необыкновенное путешествие Мишки Стрекачёва скачать торрент
    Необыкновенное путешествие Мишки Стрекачёва смотреть онлайн
    Cкачать фильм Необыкновенное путешествие Мишки Стрекачёва бесплатно
    Необыкновенное путешествие Мишки Стрекачёва скачать торрент в хорошем качестве
    Необыкновенное путешествие Мишки Стрекачёва смотреть онлайн бесплатно в хорошем качестве


    Вы не можете начинать темы
    Вы не можете отвечать на сообщения
    Вы не можете редактировать свои сообщения
    Вы не можете удалять свои сообщения
    Вы не можете голосовать в опросах
    Вы не можете прикреплять файлы к сообщениям
    Вы можете скачивать файлы