Ссылка на приватное зеркало нашего сайта всего за 1$. Внимание количество ограничено!!!

2 сезон

iTunes

1 сезон

1

iTunes

iTunes

iTunes

1 сезон

RePack

30

ИГРА 18+

pack

ВАЖНО

!!Акция!!

Alien_RageХит недели

RePack

MK11
pack

Забери бонус

RePack

jed

!!Акция!!

Alien_Rage

RePack

fifa19

RePack

Assassins Creed: Odyssey

RePack

NEED FOR SPEED™ PAYBACK

4 сезон

9 сезон

Бесстыжие 9 сезон

Все сериалы

все сериалы на PB.wtf

RePack

FAR CRY 5
  

Спасите наших собак / Save My Dogs (Чжан Фань) [2018, Комедия, боевик, WEB-DL 720p] MVO [КОЛОБОК] pb.wtf

Спасите наших собак через торрент pb.wtf

Размер: 3.14 GB | Добавлен: 1 год 9 мес. назад | Торрент скачан:13 раз
Скачать  

31-12-2018 10:18 Спасите наших собак Скачать торрент  

Спасите наших собак / Save My DogsГод выпуска: 2018
Страна: Китай
Жанр: Комедия, боевик
Продолжительность: 01:31:39
Перевод: Любительский (многоголосый) | КОЛОБОК
Субтитры: отсутствуют

Режиссер: Чжан Фань



В ролях:

Лю Сяое, Пес Лян Цзай, Пес Сяо Цзинь, Цзи Шуай, У Цин, Фэнни Ян, Чжан Шань, Вонг Ят-Фэй, Сюй Хаолинь, Ши Юй

Описание:

После того как пёс проглатывает бриллиант он становится настоящей дичью в глазах множества людей. Но изловить его непросто, ведь собака всё понимает.

Качество: WEB-DL 720p
Формат: MKV

Видео: h.264,4 513 Кбит/с, 1280x536
Аудио#1: Русский, (AC3, 2 ch, 384 Кбит/с)
скриншот  скриншот  скриншот  

Общее
Уникальный идентификатор : 199175723291823363945124901176238825073 (0x95D7D955FC0ECABBB93FF4B9E5C25E71)
Полное имя : D:\Save.My.Dogs.2018.Pk.WEB_DL.72Op.mkv
Формат : Matroska
Версия формата : Version 2
Размер файла : 3,14 Гбайт
Продолжительность : 1 ч. 31 м.
Режим общего битрейта : Переменный
Общий поток : 4898 Кбит/сек
Дата кодирования : UTC 2018-12-29 13:48:08
Программа кодирования : mkvmerge v8.3.0 ('Over the Horizon') 64bit
Библиотека кодирования : libebml v1.3.1 + libmatroska v1.4.2

Видео
Идентификатор : 1
Формат : AVC
Формат/Информация : Advanced Video Codec
Профиль формата : High@L4.1
Параметр CABAC формата : Да
Параметр RefFrames формата : 4 кадра
Идентификатор кодека : V_MPEG4/ISO/AVC
Продолжительность : 1 ч. 31 м.
Вид битрейта : Переменный
Битрейт : 4513 Кбит/сек
Максимальный битрейт : 5000 Кбит/сек
Ширина : 1280 пикселей
Высота : 536 пикселей
Соотношение сторон : 2,40:1
Режим частоты кадров : Постоянный
Частота кадров : 23,976 (24000/1001) кадра/сек
Стандарт вещания : Component
Цветовое пространство : YUV
Субдискретизация насыщенности : 4:2:0
Битовая глубина : 8 бит
Тип развёртки : Прогрессивная
Бит/(Пиксели*Кадры) : 0.269
Размер потока : 2,83 Гбайт (90%)
Default : Да
Forced : Нет
Цветовой диапазон : Limited
Основные цвета : BT.709
Характеристики трансфера : BT.709
Коэффициенты матрицы : BT.709

Аудио
Идентификатор : 2
Формат : AC-3
Формат/Информация : Audio Coding 3
Расширение режима : CM (complete main)
Параметр Endianness формата : Big
Идентификатор кодека : A_AC3
Продолжительность : 1 ч. 31 м.
Вид битрейта : Постоянный
Битрейт : 384 Кбит/сек
Каналы : 2 канала
Расположение каналов : Front: L R
Частота : 48,0 КГц
Частота кадров : 31,250 кадров/сек (1536 spf)
Метод сжатия : С потерями
Размер потока : 252 Мбайт (8%)
Default : Да
Forced : Нет

pb.wtf



Скачать Спасите наших собак через торрент https://c.radikal.ru/c38/1812/f3/500b9ba8320f.jpg Скачать фильм Спасите наших собак через торрент бесплантно в хорошем качестве Описание: После того как пёс проглатывает бриллиант он становится настоящей дичью в глазах множества людей. Но изловить его непросто, ведь ... 10 10 2
Торрент: Зарегистрирован [2018-12-31 10:18] · скачан: 13 раз
Статус: T временная
Размер: 3.14 GB
Как cкачать? Как скачать Спасите наших собак через торрент | qTorrent

% Раздел Тема Автор DL S | L
T Фильмы (мультфильмы) cо спонсором показа (Новинки AVI/MKV) [ 1.37 GB ] Спасите наших собак / Save My Dogs [2018 WEB-DLRip] MVO [КОЛОБОК] bober100 Скачать
1 | 0

28-11-2019 20:33  

Отключить всю рекламу на сайте

    Дорогой пользователь! Огромная просьба, поблагодарите релизера, оцените раздачу и оставьте свои комментарий, если Вы скачали Спасите наших собак через торрент бесплатно! Внесите свою лепту в развитие PiratBit!
    Комментировать посты могут только пользователи прошедшие не сложную регистрацию
    Показать сообщения:    

    Спасите наших собак через торрент
    Скачать бесплатно Спасите наших собак
    Спасите наших собак скачать торрент
    Спасите наших собак смотреть онлайн
    Cкачать фильм Спасите наших собак бесплатно
    Спасите наших собак скачать торрент в хорошем качестве
    Спасите наших собак смотреть онлайн бесплатно в хорошем качестве


    Вы не можете начинать темы
    Вы не можете отвечать на сообщения
    Вы не можете редактировать свои сообщения
    Вы не можете удалять свои сообщения
    Вы не можете голосовать в опросах
    Вы не можете прикреплять файлы к сообщениям
    Вы можете скачивать файлы