Ссылка на приватное зеркало нашего сайта всего за 1$. Внимание количество ограничено!!!

2 сезон

iTunes

1 сезон

1

2 сезон

2 сезон

iTunes

1 сезон

RePack

30

Ultimate

ВАЖНО

ИГРА 18+

pack

RePack

MK11
pack

Забери бонус

RePack

jed

!!Акция!!

Alien_Rage

RePack

fifa19

RePack

Assassins Creed: Odyssey

RePack

NEED FOR SPEED™ PAYBACK

4 сезон

9 сезон

Бесстыжие 9 сезон

Все сериалы

все сериалы на PB.wtf

RePack

FAR CRY 5
  

Дикий - 4 / Сезон: 4 / Серии: 1-32 из 32 (Артём Мазунов) [2014, Детектив, боевик, криминал, HDTVRip 720p] pb.wtf

Дикий - 4 через торрент pb.wtf

Размер: 36.31 GB | Добавлен: 1 год 10 мес. назад | Торрент скачан:14 раз
Скачать  

04-01-2019 05:54 Дикий - 4 Скачать торрент  


Дикий 4 Год выпуска: 2014
Страна: Россия
Жанр: Детектив, боевик, криминал
Продолжительность: ~ 00:45:00 серия
Субтитры: отсутствуют

Режиссер: Артём Мазунов

rating

В ролях:

Игорь Лифанов, Артём Мазунов, Мария Баева, Станислав Бондаренко, Сергей Баталов, Юлия Галкина, Руслан Спояло, Егор Долгополов, Даулет Абдыгапаров, Владимир Воробьёв, Всеволод Яшкин, Дмитрий Умеров, Сергей Данилевич, Семен Штейнберг, Владимир Яковлев, Александр Сергеев, Андрей Осипов, Роман Катышкин, Андрей Стоянов, Павел Викторов, Петр Жихарев, Александр Филатов, Олег Карин

Описание:

В конце прошлого сезона погибла любимая девушка Таня, с которой у Дикого так все замечательно складывалось. Он — в отчаянии и депрессии, ведь кошмар прошлого — гибель жены — повторился. Дикий уверен: причина всех бед кроется в нем самом. Он как «черная метка», приносящая всем вокруг несчастья…

Качество: HDTVRip 720p
Формат: MKV

Видео: MPEG-4 AVC, ~ 3500 Кбит/с, 1280x720
Аудио: AC3, 2 ch, 192 Кбит/с
скриншот  скриншот  скриншот  

Общее
Уникальный идентификатор : 185428138343714302851067711972056472751 (0x8B802911138927D4B5F0AE3C7DA39CAF)
Полное имя : D:\Dikij-4.2014.HDTVRip.(720p).Nikolspup\Dikij-4.(01.seriya.iz.32).2014.HDTVRip.(720p).Nikolspup.mkv
Формат : Matroska
Версия формата : Version 2
Размер файла : 861 Мбайт
Продолжительность : 32 м. 35 с.
Общий поток : 3693 Кбит/сек
Дата кодирования : UTC 2016-08-03 15:47:34
Программа кодирования : mkvmerge v7.8.0 ('River Man') 32bit built on Apr 3 2015 12:11:22
Библиотека кодирования : libebml v1.3.1 + libmatroska v1.4.2

Видео
Идентификатор : 1
Формат : AVC
Формат/Информация : Advanced Video Codec
Профиль формата : High@L4.1
Параметр CABAC формата : Да
Параметр RefFrames формата : 9 кадров
Идентификатор кодека : V_MPEG4/ISO/AVC
Продолжительность : 32 м. 35 с.
Битрейт : 3500 Кбит/сек
Ширина : 1280 пикселей
Высота : 720 пикселей
Соотношение сторон : 16:9
Режим частоты кадров : Постоянный
Частота кадров : 25,000 кадров/сек
Цветовое пространство : YUV
Субдискретизация насыщенности : 4:2:0
Битовая глубина : 8 бит
Тип развёртки : Прогрессивная
Бит/(Пиксели*Кадры) : 0.152
Размер потока : 799 Мбайт (93%)
Библиотека кодирования : x264 core 146 r2538 121396c
Настройки программы : cabac=1 / ref=9 / deblock=1:-3:-3 / analyse=0x3:0x113 / me=umh / subme=11 / psy=1 / psy_rd=1.00:0.20 / mixed_ref=1 / me_range=32 / chroma_me=1 / trellis=2 / 8x8dct=1 / cqm=0 / deadzone=21,11 / fast_pskip=0 / chroma_qp_offset=-3 / threads=4 / lookahead_threads=1 / sliced_threads=0 / nr=0 / decimate=0 / interlaced=0 / bluray_compat=0 / constrained_intra=0 / bframes=12 / b_pyramid=2 / b_adapt=2 / b_bias=0 / direct=3 / weightb=1 / open_gop=0 / weightp=2 / keyint=250 / keyint_min=25 / scenecut=40 / intra_refresh=0 / rc_lookahead=60 / rc=2pass / mbtree=0 / bitrate=3500 / ratetol=1.0 / qcomp=0.60 / qpmin=0 / qpmax=69 / qpstep=4 / cplxblur=20.0 / qblur=0.5 / vbv_maxrate=14000 / vbv_bufsize=14000 / nal_hrd=none / filler=0 / ip_ratio=1.40 / pb_ratio=1.30 / aq=3:0.80
Default : Да
Forced : Нет
Цветовой диапазон : Limited
Основные цвета : BT.709
Характеристики трансфера : BT.709
Коэффициенты матрицы : BT.709

Аудио
Идентификатор : 2
Формат : AC-3
Формат/Информация : Audio Coding 3
Расширение режима : CM (complete main)
Параметр Endianness формата : Big
Идентификатор кодека : A_AC3
Продолжительность : 32 м. 35 с.
Вид битрейта : Постоянный
Битрейт : 192 Кбит/сек
Каналы : 2 канала
Расположение каналов : Front: L R
Частота : 48,0 КГц
Частота кадров : 31,250 кадров/сек (1536 spf)
Метод сжатия : С потерями
Размер потока : 44,7 Мбайт (5%)
Default : Да
Forced : Нет

pb.wtf



Скачать Дикий - 4 через торрент http://i33.fastpic.ru/big/2014/0412/0a/0b3f71144332f9f0aad37ba1dd5b610a.jpeg Скачать фильм Дикий - 4 через торрент бесплантно в хорошем качестве Описание: В конце прошлого сезона погибла любимая девушка Таня, с которой у Дикого так все замечательно складывалось. Он — в отчаянии и ... 10 10 2
Торрент: Зарегистрирован [2019-01-04 05:54] · скачан: 14 раз
Статус: √ проверено
Размер: 36.31 GB
Как cкачать? Как скачать Дикий - 4 через торрент | qTorrent

% Раздел Тема Автор DL S | L
Наши сериалы [ 19.16 GB ] Дикий-4 Сезон: 4 / Серии: 1-32 из 32 [2014 SATRip] White Smoke Скачать
1 | 0

28-11-2019 20:33  

Отключить всю рекламу на сайте

    Дорогой пользователь! Огромная просьба, поблагодарите релизера, оцените раздачу и оставьте свои комментарий, если Вы скачали Дикий - 4 через торрент бесплатно! Внесите свою лепту в развитие PiratBit!
    Комментировать посты могут только пользователи прошедшие не сложную регистрацию
    Показать сообщения:    

    Дикий - 4 через торрент
    Скачать бесплатно Дикий - 4
    Дикий - 4 скачать торрент
    Дикий - 4 смотреть онлайн
    Cкачать фильм Дикий - 4 бесплатно
    Дикий - 4 скачать торрент в хорошем качестве
    Дикий - 4 смотреть онлайн бесплатно в хорошем качестве


    Вы не можете начинать темы
    Вы не можете отвечать на сообщения
    Вы не можете редактировать свои сообщения
    Вы не можете удалять свои сообщения
    Вы не можете голосовать в опросах
    Вы не можете прикреплять файлы к сообщениям
    Вы можете скачивать файлы