Ссылка на приватное зеркало нашего сайта всего за 1$. Внимание количество ограничено!!!

2 сезон

iTunes

1 сезон

1

iTunes

iTunes

iTunes

1 сезон

RePack

30

ИГРА 18+

pack

ВАЖНО

!!Акция!!

Alien_RageХит недели

RePack

MK11
pack

Забери бонус

RePack

jed

!!Акция!!

Alien_Rage

RePack

fifa19

RePack

Assassins Creed: Odyssey

RePack

NEED FOR SPEED™ PAYBACK

4 сезон

9 сезон

Бесстыжие 9 сезон

Все сериалы

все сериалы на PB.wtf

RePack

FAR CRY 5
  

Американский дебошир / Brawler (Кен Кушнер) [2019, драма, мелодрама, криминал, биография, история, спорт, WEB-DL 720p] MVO ["Синема УС"] pb.wtf

Американский дебошир через торрент pb.wtf

Размер: 3.61 GB | Добавлен: 1 год 10 мес. назад | Торрент скачан:66 раз
Скачать  

25-12-2018 12:49 Американский дебошир Скачать торрент  

Американский дебошир / BrawlerГод выпуска: 2019
Страна: США
Жанр: драма, мелодрама, криминал, биография, история, спорт
Продолжительность: 01:37:35
Перевод: Любительский (многоголосый) | "Синема УС"
Субтитры: отсутствуют

Режиссер: Кен Кушнер

rating

В ролях:

Зэк МакГоун, Эми Смарт, Джо Пантольяно, Тэрин Мэннинг, Берт Янг, Артур Л. Бернштейн, Адам Фалькоф, Джейсон Джеймс Рихтер, Тони Дарроу, Николас М. Лоб

Описание:

Все слышали о фильме "Рокки", но мало кто знает, что у его главного героя есть реальный прототип - Чак Уэпнер, обычный боксер из Байонны, штат Нью-Джерси, который обрел минуту славы благодаря бою с Мухаммедом Али. Несмотря на то, что сам Сильвестр Сталлоне после выхода фильма неоднократно признавал Чака источником вдохновения для "Рокки", Уэпнер не обрел ни славы, ни богатства. Сможет ли американский дебошир отстоять права и постоять за себя в зале суда так же, как на боксерском ринге?

Качество: WEB-DL 720p
Формат: MKV

Видео: h.264, 4 904 kb/s, 1280x530
Аудио#1: Русский, (AC3, 2 ch, 384 Кбит/с)
скриншот  скриншот  скриншот  

Общее
Уникальный идентификатор : 241692551969210978802005453084891725713 (0xB5D44AD54E4469A38CEA060C246EBF91)
Полное имя : E:\торреннты\15.Rounds.2019.P.WEB-DL.72Op_KOSHARA.mkv
Формат : Matroska
Версия формата : Version 2
Размер файла : 3,61 Гбайт
Продолжительность : 1 ч. 37 м.
Режим общего битрейта : Переменный
Общий поток : 5290 Кбит/сек
Дата кодирования : UTC 2018-12-25 10:56:46
Программа кодирования : mkvmerge v8.3.0 ('Over the Horizon') 64bit
Библиотека кодирования : libebml v1.3.1 + libmatroska v1.4.2

Видео
Идентификатор : 1
Формат : AVC
Формат/Информация : Advanced Video Codec
Профиль формата : High@L4.1
Настройки формата : CABAC / 4 Ref Frames
Параметр CABAC формата : Да
Параметр RefFrames формата : 4 кадра
Идентификатор кодека : V_MPEG4/ISO/AVC
Продолжительность : 1 ч. 37 м.
Вид битрейта : Переменный
Битрейт : 4904 Кбит/сек
Максимальный битрейт : 5500 Кбит/сек
Ширина : 1280 пикселей
Высота : 530 пикселей
Соотношение сторон : 2,40:1
Режим частоты кадров : Постоянный
Частота кадров : 23,976 (24000/1001) кадра/сек
Стандарт вещания : Component
Цветовое пространство : YUV
Субдискретизация насыщенности : 4:2:0
Битовая глубина : 8 бит
Тип развёртки : Прогрессивная
Бит/(Пиксели*Кадры) : 0.295
Размер потока : 3,27 Гбайт (91%)
Default : Да
Forced : Нет
Цветовой диапазон : Limited
Основные цвета : BT.709
Характеристики трансфера : BT.709
Коэффициенты матрицы : BT.709

Аудио
Идентификатор : 2
Формат : AC-3
Формат/Информация : Audio Coding 3
Идентификатор кодека : A_AC3
Продолжительность : 1 ч. 37 м.
Вид битрейта : Постоянный
Битрейт : 384 Кбит/сек
Каналы : 2 канала
Расположение каналов : Front: L R
Частота : 48,0 КГц
Частота кадров : 31,250 кадров/сек (1536 SPF)
Битовая глубина : 16 бит
Метод сжатия : С потерями
Размер потока : 268 Мбайт (7%)
ServiceKind/String : Complete Main
Default : Да
Forced : Нет

pb.wtf



Скачать Американский дебошир через торрент https://c.radikal.ru/c09/1812/57/7c2fccc0f4d9.jpg Скачать фильм Американский дебошир через торрент бесплантно в хорошем качестве Описание: Все слышали о фильме "Рокки", но мало кто знает, что у его главного героя есть реальный прото - Чак Уэпнер, обычный боксер из ... 9.3 10 7
Торрент: Зарегистрирован [2018-12-25 12:49] · скачан: 66 раз
Статус: T временная
Размер: 3.61 GB
Как cкачать? Как скачать Американский дебошир через торрент | qTorrent

% Раздел Тема Автор DL S | L
T Фильмы (мультфильмы) cо спонсором показа (Новинки AVI/MKV) [ 1.37 GB ] Американский дебошир / Brawler [2019 биография история WEB-DLRip] MVO ["Синема УС"] bober100 Скачать
1 | 0

28-11-2019 20:33  

Отключить всю рекламу на сайте

25-12-2018 14:09 Американский дебошир Скачать торрент  

2019? Это как ?pb.wtf



25-12-2018 16:21 Американский дебошир Скачать торрент  

dddeeennn писал(а):

2019? Это как ?

Вот так pb.wtf



25-12-2018 16:47 Американский дебошир Скачать торрент  

dddeeennn писал(а):

2019? Это как ?

Плёнку спистили)pb.wtf



04-01-2019 21:01 Американский дебошир Скачать торрент  

фильм агонь!pb.wtf



    Дорогой пользователь! Огромная просьба, поблагодарите релизера, оцените раздачу и оставьте свои комментарий, если Вы скачали Американский дебошир через торрент бесплатно! Внесите свою лепту в развитие PiratBit!
    Комментировать посты могут только пользователи прошедшие не сложную регистрацию
    Показать сообщения:    

    Американский дебошир через торрент
    Скачать бесплатно Американский дебошир
    Американский дебошир скачать торрент
    Американский дебошир смотреть онлайн
    Cкачать фильм Американский дебошир бесплатно
    Американский дебошир скачать торрент в хорошем качестве
    Американский дебошир смотреть онлайн бесплатно в хорошем качестве


    Вы не можете начинать темы
    Вы не можете отвечать на сообщения
    Вы не можете редактировать свои сообщения
    Вы не можете удалять свои сообщения
    Вы не можете голосовать в опросах
    Вы не можете прикреплять файлы к сообщениям
    Вы можете скачивать файлы