Доктор Стрэндж

Лицензия

Добыча

Дубляж

Дом дракона

1 сезон

Тор

Дубляж

В эфире

Дубляж

Там, где раки поют

MVO

Властелин колец

1 сезон

Ultimate

pack

Рекомендуем

30

Пиратка

ВАЖНО

ВАЖНО

Ghostwire

Пиратка

jed

RePack

nioh2

RePack

RDR2

RePack

NEED FOR SPEED™ PAYBACK

RePack

скачать торрент

Кинопоиск HD

Острые козырьки 6 сезон

6 сезон

FAR CRY 6

RePack

скачать торрент

Лицензия

скачать торрент

MVO

1

1 сезон

скачать торрент

1 сезон

скачать торрент

Лицензия

  

Игра Блэка / Игра чёрными / Black's Game / Svartur á Leik (Оскар Тор Аксельссон) [2012, триллер, криминал, боевик, BDRip-AVC] [MVO] (Переулок Переводмана)

Игра Блэка через торрент pb.wtf

Размер: 2.18 GB | Добавлен: 3 года 10 мес. назад | Торрент скачан:17 раз
Смотреть онлайн | Скачать   

15-01-2019 13:39 Игра Блэка Скачать торрент  

Игра Блэка / Игра чёрными / Black's Game / Svartur á Leik Год выпуска: 2012
Страна: Исландия
Жанр: триллер, криминал, боевик
Продолжительность: 01:45:28
Перевод: Любительский (многоголосый закадровый) Переулок Переводмана
Роли озвучили: Гаевский, Матвеев, Чадов, Яроцкий, Котов. При участии Анастасии Хабаровой.
Субтитры: английские

Режиссер: Оскар Тор Аксельссон / Óskar Thór Axelsson

В ролях: Toр Kристианссон, Йоханнес Хокур Йоханнессон, Дэймон Янгер, Мария Бирта, Эйидль Эйнарссон, Штейн Аманн Магнуссон, Андри Мар Биргиссон, Бьёрн Фрибирмссон, Свеинн Геирссон, Тростур Лео Гуннарссон, Рунар Фрейр Гисласон

Описание: В основе фильма лежит реальная история. Действия фильма разворачиваются в конце 90-х годов прошлого столетия в Исландии. Сюжет рассказывает о криминальном мире Рейкьявика: преступные группировки, наркотики, проституция, нелегальные сделки за фасадами красивых домов. Молодые парни не видят для себя преград в осуществлении полного контроля города. Правда, контроль этот осуществить можно лишь криминальным путем, а это чревато очень печальными последствиями, ведь наглых новичков никто не любит и тем более не собирается идти у них на поводу.

ratingскриншот  
Сэмпл: http://multi-up.com/1220057

Качество видео: BDRip-AVC
Формат видео: MKV
Видео: MPEG-4 AVC/H.264 / 2190 kbps / 1104x462 / 23.976 fps
Аудио 1: MVO Переулок Переводмана (Rus) / AC3 / 6 ch / 384 kbps / 48 kHz
Аудио 2: Original (Ice) / AC3 / 6 ch / 384 kbps / 48 kHz
Формат субтитров: softsub (SRT)

#Сохранены оригинальные чаптеры как на Blu-ray
Перевод доступен благодаря Глебу Аксёнову.

x264 [info]: frame I:1000 Avg QP:15.88 size: 59792
x264 [info]: frame P:30798 Avg QP:19.24 size: 21804
x264 [info]: frame B:119943 Avg QP:20.80 size: 8344
General
Unique ID : 196312794673632722169638586329898744431 (0x93B0780E9A744386A6E31B47784CFA6F)
Complete name : I:\torrents\Игра чёрными (2012) BDRip-AVC.mkv
Format : Matroska
Format version : Version 2
File size : 2.18 GiB
Duration : 1 h 45 min
Overall bit rate : 2 959 kb/s
Movie name : Игра чёрными / Svartur á leik (2012)
Encoded date : UTC 2019-01-07 11:29:16
Writing application : mkvmerge v5.5.0 ('Healer') built on Apr 24 2012 23:47:03
Writing library : libebml v1.2.3 + libmatroska v1.3.0

Video
ID : 1
Format : AVC
Format/Info : Advanced Video Codec
Format profile : [email protected]
Format settings : CABAC / 8 Ref Frames
Format settings, CABAC : Yes
Format settings, ReFrames : 8 frames
Codec ID : V_MPEG4/ISO/AVC
Duration : 1 h 45 min
Bit rate : 2 190 kb/s
Width : 1 104 pixels
Height : 462 pixels
Display aspect ratio : 2.40:1
Frame rate mode : Constant
Frame rate : 23.976 (24000/1001) FPS
Color space : YUV
Chroma subsampling : 4:2:0
Bit depth : 8 bits
Scan type : Progressive
Bits/(Pixel*Frame) : 0.179
Stream size : 1.57 GiB (72%)
Title : BDRip (AVC) / MPEG-4 AVC/H.264 / 2190 kbps / 1104x462 / 23.976 fps
Writing library : x264 core 146 r2538 121396c
Encoding settings : cabac=1 / ref=8 / deblock=1:0:0 / analyse=0x3:0x113 / me=umh / subme=10 / psy=1 / psy_rd=1.00:0.00 / mixed_ref=1 / me_range=32 / chroma_me=1 / trellis=2 / 8x8dct=1 / cqm=0 / deadzone=21,11 / fast_pskip=0 / chroma_qp_offset=-2 / threads=6 / lookahead_threads=1 / sliced_threads=0 / nr=0 / decimate=1 / interlaced=0 / bluray_compat=0 / constrained_intra=0 / bframes=9 / b_pyramid=2 / b_adapt=2 / b_bias=0 / direct=3 / weightb=1 / open_gop=0 / weightp=2 / keyint=250 / keyint_min=23 / scenecut=40 / intra_refresh=0 / rc_lookahead=50 / rc=2pass / mbtree=1 / bitrate=2190 / ratetol=1.0 / qcomp=0.60 / qpmin=0 / qpmax=69 / qpstep=4 / cplxblur=20.0 / qblur=0.5 / vbv_maxrate=14000 / vbv_bufsize=14000 / nal_hrd=none / filler=0 / ip_ratio=1.40 / aq=1:1.00
Language : Icelandic
Default : Yes
Forced : Yes

Audio #1
ID : 2
Format : AC-3
Format/Info : Audio Coding 3
Codec ID : A_AC3
Duration : 1 h 45 min
Bit rate mode : Constant
Bit rate : 384 kb/s
Channel(s) : 6 channels
Channel positions : Front: L C R, Side: L R, LFE
Sampling rate : 48.0 kHz
Frame rate : 31.250 FPS (1536 SPF)
Bit depth : 16 bits
Compression mode : Lossy
Stream size : 290 MiB (13%)
Title : MVO Переулок Переводмана (Rus) / AC3 / 6 ch / 384 kbps / 48 kHz
Language : Russian
Service kind : Complete Main
Default : Yes
Forced : Yes

Audio #2
ID : 3
Format : AC-3
Format/Info : Audio Coding 3
Codec ID : A_AC3
Duration : 1 h 45 min
Bit rate mode : Constant
Bit rate : 384 kb/s
Channel(s) : 6 channels
Channel positions : Front: L C R, Side: L R, LFE
Sampling rate : 48.0 kHz
Frame rate : 31.250 FPS (1536 SPF)
Bit depth : 16 bits
Compression mode : Lossy
Stream size : 290 MiB (13%)
Title : Original (Ice) / AC3 / 6 ch / 384 kbps / 48 kHz
Language : Icelandic
Service kind : Complete Main
Default : No
Forced : No

Text
ID : 4
Format : UTF-8
Codec ID : S_TEXT/UTF8
Codec ID/Info : UTF-8 Plain Text
Title : Full (Eng) / S_TEXT/UTF8
Language : English
Default : No
Forced : No

Menu
00:00:00.000 : :00:00:00.000
00:07:59.479 : :00:07:59.479
00:17:14.367 : :00:17:14.367
00:24:27.800 : :00:24:27.800
00:32:08.176 : :00:32:08.176
00:39:05.468 : :00:39:05.468
00:46:53.477 : :00:46:53.477
00:57:07.799 : :00:57:07.799
01:05:37.267 : :01:05:37.267
01:14:17.119 : :01:14:17.119
01:27:48.180 : :01:27:48.180
01:40:59.178 : :01:40:59.178
скриншот  скриншот  скриншот  



Скачать Игра Блэка через торрент https://i84.fastpic.ru/big/2019/0111/05/6957e27069d94c7e5255589c0d7d8c05.jpg Скачать, смотреть онлайн Игра Блэка бесплантно в хорошем качестве Описание: В основе фильма лежит реальная история. Действия фильма разворачиваются в конце 90-х годов прошлого столетия в Исландии. Сюжет ... 5 10 1
Торрент: Зарегистрирован [2019-01-15 13:39] · скачан: 17 раз
Статус: √ проверено
Размер: 2.18 GB
Как cкачать? Как скачать Игра Блэка через торрент | UTorrent

% Раздел Тема Автор DL S | L
Фильмы 2012 [ 1.46 GB ] Игра Блэка / Svartur a leik | | HDRip, VO Drakosha Скачать
1 | 0

28-11-2019 20:33  


Отключить вcю реклaмy на сайте, в т.ч. и в плеере онлайн просмотра!

    Дорогой пользователь! Огромная просьба, поблагодарите релизера, оцените раздачу и оставьте свои комментарий, если Вы скачали Игра Блэка через торрент бесплатно!!
    Комментировать посты могут только пользователи прошедшие не сложную регистрацию
    Показать сообщения:    


    Игра Блэка через торрент
    Скачать бесплатно Игра Блэка
    Игра Блэка скачать торрент
    Игра Блэка смотреть онлайн
    Cкачать фильм Игра Блэка бесплатно
    Игра Блэка скачать торрент в хорошем качестве
    Игра Блэка смотреть онлайн бесплатно в хорошем качестве
    Вы не можете начинать темы
    Вы не можете отвечать на сообщения
    Вы не можете редактировать свои сообщения
    Вы не можете удалять свои сообщения
    Вы не можете голосовать в опросах
    Вы не можете прикреплять файлы к сообщениям
    Вы можете скачивать файлы
    Игра Блэка / Игра чёрными / Black's Game / Svartur á Leik [2012, триллер, криминал, боевик, BDRip-AVC] [MVO] смотреть онлайн, скачать торрент picoco.icu