Ссылка на приватное зеркало нашего сайта всего за 1$. Внимание количество ограничено!!!

2 сезон

iTunes

1 сезон

1

iTunes

iTunes

iTunes

1 сезон

RePack

30

ИГРА 18+

pack

ВАЖНО

!!Акция!!

Alien_RageХит недели

RePack

MK11
pack

Забери бонус

RePack

jed

!!Акция!!

Alien_Rage

RePack

fifa19

RePack

Assassins Creed: Odyssey

RePack

NEED FOR SPEED™ PAYBACK

4 сезон

9 сезон

Бесстыжие 9 сезон

Все сериалы

все сериалы на PB.wtf

RePack

FAR CRY 5
  

Рэй Донован / Ray Donovan / Сезон: 6 / Серии: 1-12 из 12 (Аллен Култер) [2018-2019, драма, криминал, WEB-DL 720p] MVO [Amedia] pb.wtf

Рэй Донован через торрент pb.wtf

Размер: 14.81 GB | Добавлен: 1 год 9 мес. назад | Торрент скачан:19 раз
Скачать  

16-01-2019 08:05 Рэй Донован Скачать торрент  

Рэй Донован / Ray Donovan / Сезон 6 Год выпуска: 2018-2019
Страна: США
Жанр: драма, криминал
Продолжительность: ~00:59:00
Перевод: Профессиональный (многоголосый закадровый) | Novamedia по заказу Amedia
Роли озвучивали: Александр Носков, Сергей Чихачёв, Михаил Тихонов, Анастасия Лапина, Василиса Воронина
Субтитры: Русские (форсированные, полные), Английские (SDH)

Режиссёр: Аллен Култер

В ролях:

Лив Шрайбер, Паула Малкомсон, Кэтрин Монниг, Пуч Холл, Кэррис Дорси, Девон Бэгби, Джон Войт, Стивен Бауэр, Уильям Стэнфорд Дэвис, Майкл МакГрэйди и др.

Описание:

Рэй Донован — первоклассный специалист по устранению проблем любой сложности. Его клиенты — самые знаменитые и влиятельные люди Лос-Анджелеса, для которых он исполняет практически любые задания. В шестом сезоне жизнь Донована разделится на до и после. Крутой голливудский чистильщик на грани нервного срыва перебирается из Лос-Анджелеса в Нью-Йорк, где у него появляется шанс вновь воспрянуть духом. Начинается всё с затяжного прыжка в Ист-Ривер, откуда Рэя спасает полицейский по имени Мак. В результате Донован становится частью братства — а точнее, департамента полиции Статен-Айленда. Параллельно с погружением в этот новый мир Рэй снова принимает приглашение поработать на зубастого медиамагната Саманту Уинслоу (обладательница «Оскара» Сьюзен Сарандон уже второй сезон подряд блистает в этой роли). Первое задание в корне расходится с интересами новых друзей героя — ему поручено разобраться с неприятностями кандидата в мэры Нью-Йорка Аниты Новак (Лола Глаудини), которую активно поддерживает Уинслоу.




Качество: WEB-DL 720p
Контейнер: MKV

Видео: AVC, 1280x720 (16:9), 23.976 fps, ~3000 kbps
Аудио №1: AC3 5.1, 48 kHz, 384 kbps
Аудио №2: E-AC3 5.1, 48 kHz, 640 kbps


Релиз: Wilmots@EniaHD
01. Статен-Айленд: Часть 1 / Staten Island: Part 1
02. Статен-Айленд: Часть 2 / Staten Island: Part 2
03. Суровый и беспощадный / He Be Tight. He Be Mean
04. Пухляк / Pudge
05. Остров Эллис / Ellis Island
06. Девочка по имени Мария / A Girl Named Maria
07. 132-й / The 1-3-2
08. Тот, кто был мёртв / Who Once Was Dead
09. Dream On / Dream On
10. Бэби / Baby
11. Никогда тебя не брошу / Never Gonna Give You Up
12. Мёртвые / The Dead
General
Unique ID : 222199108472447567329277306262552617007 (0xA729FDDD94FFD1F8850E3566AC54A02F)
Complete name : G:\Ray.Donovan.S06.720p.WEB-DL.DD5.1.H.264-EniaHD\Ray.Donovan.S06E07.The.1-3-2.720p.NF.WEB-DL.DD5.1.H.264-EniaHD.mkv
Format : Matroska
Format version : Version 4 / Version 2
File size : 1.56 GiB
Duration : 56 min 51 s
Overall bit rate mode : Variable
Overall bit rate : 3 937 kb/s
Movie name : Ray.Donovan.S06E07.The.1-3-2.720p.NF.WEB-DL.DD5.1.H.264-EniaHD
Encoded date : UTC 2019-01-15 17:20:05
Writing application : mkvmerge v30.1.0 ('Forever And More') 64-bit
Writing library : libebml v1.3.6 + libmatroska v1.4.9

Video
ID : 1
Format : AVC
Format/Info : Advanced Video Codec
Format profile : Main@L3.1
Format settings : CABAC / 3 Ref Frames
Format settings, CABAC : Yes
Format settings, ReFrames : 3 frames
Codec ID : V_MPEG4/ISO/AVC
Duration : 56 min 51 s
Bit rate mode : Variable
Bit rate : 3 000 kb/s
Maximum bit rate : 4 500 kb/s
Width : 1 280 pixels
Height : 720 pixels
Display aspect ratio : 16:9
Frame rate mode : Constant
Frame rate : 23.976 (24000/1001) FPS
Color space : YUV
Chroma subsampling : 4:2:0
Bit depth : 8 bits
Scan type : Progressive
Bits/(Pixel*Frame) : 0.136
Stream size : 1.16 GiB (74%)
Writing library : x264 core 148 r2715 7e75228
Encoding settings : cabac=1 / ref=3 / deblock=1:0:0 / analyse=0x1:0x111 / me=umh / subme=10 / psy=1 / psy_rd=1.00:0.00 / mixed_ref=1 / me_range=24 / chroma_me=1 / trellis=2 / 8x8dct=0 / cqm=0 / deadzone=21,11 / fast_pskip=1 / chroma_qp_offset=-2 / threads=8 / lookahead_threads=1 / sliced_threads=0 / nr=0 / decimate=1 / interlaced=0 / bluray_compat=0 / stitchable=1 / constrained_intra=0 / bframes=2 / b_pyramid=0 / b_adapt=2 / b_bias=0 / direct=3 / weightb=1 / open_gop=0 / weightp=2 / keyint=48 / keyint_min=25 / scenecut=0 / intra_refresh=0 / rc_lookahead=48 / rc=2pass / mbtree=1 / bitrate=3000 / ratetol=1.0 / qcomp=0.50 / qpmin=6 / qpmax=51 / qpstep=4 / cplxblur=20.0 / qblur=0.5 / vbv_maxrate=4500 / vbv_bufsize=6000 / nal_hrd=vbr / filler=0 / ip_ratio=1.40 / aq=1:1.00
Language : English
Default : Yes
Forced : No

Audio #1
ID : 2
Format : AC-3
Format/Info : Audio Coding 3
Codec ID : A_AC3
Duration : 56 min 51 s
Bit rate mode : Constant
Bit rate : 384 kb/s
Channel(s) : 6 channels
Channel positions : Front: L C R, Side: L R, LFE
Sampling rate : 48.0 kHz
Frame rate : 31.250 FPS (1536 SPF)
Bit depth : 16 bits
Compression mode : Lossy
Stream size : 156 MiB (10%)
Title : Novamedia
Language : Russian
Service kind : Complete Main
Default : Yes
Forced : No

Audio #2
ID : 3
Format : E-AC-3
Format/Info : Enhanced Audio Coding 3
Codec ID : A_EAC3
Duration : 56 min 51 s
Bit rate mode : Constant
Bit rate : 640 kb/s
Channel(s) : 6 channels
Channel positions : Front: L C R, Side: L R, LFE
Sampling rate : 48.0 kHz
Frame rate : 187.500 FPS (256 SPF)
Compression mode : Lossy
Stream size : 260 MiB (16%)
Language : English
Service kind : Complete Main
Default : No
Forced : No

Text #1
ID : 4
Format : UTF-8
Codec ID : S_TEXT/UTF8
Codec ID/Info : UTF-8 Plain Text
Duration : 19 min 4 s
Bit rate : 1 b/s
Count of elements : 5
Stream size : 285 Bytes (0%)
Title : Forced
Language : Russian
Default : Yes
Forced : Yes

Text #2
ID : 5
Format : UTF-8
Codec ID : S_TEXT/UTF8
Codec ID/Info : UTF-8 Plain Text
Duration : 55 min 36 s
Bit rate : 66 b/s
Count of elements : 692
Stream size : 27.2 KiB (0%)
Title : Full
Language : Russian
Default : No
Forced : No

Text #3
ID : 6
Format : UTF-8
Codec ID : S_TEXT/UTF8
Codec ID/Info : UTF-8 Plain Text
Duration : 56 min 34 s
Bit rate : 56 b/s
Count of elements : 1013
Stream size : 23.4 KiB (0%)
Title : SDH
Language : English
Default : No
Forced : No
скриншот  скриншот  скриншот  скриншот  
pb.wtf



Скачать Рэй Донован через торрент https://i4.imageban.ru/out/2018/11/13/3e4d40ed2cc561db28075e797bfb9beb.jpg Скачать фильм Рэй Донован через торрент бесплантно в хорошем качестве Описание: Рэй Донован — первоклассный специалист по устранению проблем любой сложности. Его клиенты — самые знаменитые и влиятельные люди ... 10 10 2
Торрент: Зарегистрирован [2019-01-16 08:05] · скачан: 19 раз
Статус: √ проверено
Размер: 14.81 GB
Как cкачать? Как скачать Рэй Донован через торрент | qTorrent

% Раздел Тема Автор DL S | L
Рэй Донован [ 8.5 GB ] Рэй Донован / Ray Donovan / Сезон: 6 / Серии: 1-12 из 12 [2018 WEB-DLRip] [MVO] killermax2013 Скачать
1 | 0
Рэй Донован [ 29.69 GB ] Рэй Донован / Ray Donovan / Сезон: 6 / Серии: 1-12 из 12 [2018 WEB-DL 1080p] [MVO] killermax2013 Скачать
1 | 0
Рэй Донован [ 11.32 GB ] Рэй Донован / Ray Donovan / Сезон: 6 / Серии: 1-12 из 12 [2018 WEB-DL 720p] MVO [Jaskier] bober100 Скачать
1 | 0
Рэй Донован [ 29.68 GB ] Рэй Донован / Ray Donovan / Сезон: 6 / Серии: 1-12 из 12 [2018 WEB-DL 1080p] [MVO] killermax2013 Скачать
1 | 0
Рэй Донован [ 29.73 GB ] Рэй Донован / Ray Donovan / Сезон: 6 / Серии: 1-12 из 12 [2018 WEB-DL 1080p] [MVO] killermax2013 Скачать
1 | 0
Рэй Донован [ 7.8 GB ] Рэй Донован / Ray Donovan / Сезон: 6 / Серии 1-12 из 12 [2018 WEB-DLRip] MVO [NewStudio] GEKADOL Скачать
2 | 0
Рэй Донован [ 7.86 GB ] Рэй Донован / Ray Donovan / Сезон: 6 / Серии: 1-12 из 12 [2018 WEB-DLRip] MVO [Jaskier] bober100 Скачать
1 | 0

28-11-2019 20:33  

Отключить всю рекламу на сайте

    Дорогой пользователь! Огромная просьба, поблагодарите релизера, оцените раздачу и оставьте свои комментарий, если Вы скачали Рэй Донован через торрент бесплатно! Внесите свою лепту в развитие PiratBit!
    Комментировать посты могут только пользователи прошедшие не сложную регистрацию
    Показать сообщения:    

    Рэй Донован через торрент
    Скачать бесплатно Рэй Донован
    Рэй Донован скачать торрент
    Рэй Донован смотреть онлайн
    Cкачать фильм Рэй Донован бесплатно
    Рэй Донован скачать торрент в хорошем качестве
    Рэй Донован смотреть онлайн бесплатно в хорошем качестве


    Вы не можете начинать темы
    Вы не можете отвечать на сообщения
    Вы не можете редактировать свои сообщения
    Вы не можете удалять свои сообщения
    Вы не можете голосовать в опросах
    Вы не можете прикреплять файлы к сообщениям
    Вы можете скачивать файлы