Всегда рабочее зеркало без VPN и Proxy просто перед .vidak.icu напиши любое слово или цифру, Пример http://169a.vidak.icu

MVO

MVO

1 сезон

1

1 сезон

iTunes

1 сезон

13

1 сезон

Deluxe

pack

Рекомендуем

Repack

30

ВАЖНО

RePack

MK11

RePack

jed

RePack

fifa19

RePack

RDR2

RePack

NEED FOR SPEED™ PAYBACK

Кинопоиск HD

6 сезон

 Острые козырьки 6 сезон

Все сериалы

все сериалы на PB.wtf

RePack

FAR CRY 5
  
Magnet ссылка

Валериан и город тысячи планет / Valerian and the City of a Thousand Planets (Люк Бессон) [2017, фантастика, фэнтези, боевик, UHD BDRemux 2160p] DUB [Dolby Vision] pb.wtf

Валериан и город тысячи планет через торрент pb.wtf

Размер: 51.03 GB | Добавлен: 3 года 6 мес. назад | Торрент скачан:100 раз
Смотреть онлайн Валериан и город тысячи планет | Скачать    Ребята, помогите собрать деньги на оплату серверов!!!

16-01-2019 11:13 Валериан и город тысячи планет Скачать торрент  

Валериан и город тысячи планет / Valerian and the City of a Thousand Planets«From the visionary director of The Fifth Element and Lucy»
Год выпуска: 2017
Страна: Франция, Китай, Бельгия, Германия, ОАЭ, США
Жанр: фантастика, фэнтези, боевик, приключения
Продолжительность: 02:17:24
Перевод: Дублированный| Лицензия
Режиссер: Люк Бессон
В ролях:

Дэйн ДеХаан (Major Valerian), Кара Делевинь (Sergeant Laureline), Клайв Оуэн (Commander Arun Filitt), Рианна (Bubble), Итан Хоук (Jolly the Pimp), Херби Хэнкок (Defence Minister), Крис У (Sergeant Neza), Сэм Спруэлл (General Okto-Bar), Ален Шаба (Bob the Pirate), Рутгер Хауэр (President of the World State Federation), Питер Хадсон (Captain Crowford), Ксавье Джанноли (Captain Norton)
Описание:
2700 год. Валериан и Лорелин - космические спецагенты, которые по долгу службы впутались в подозрительное дело и стали невольными участниками то ли межгалактического заговора, то ли аферы причудливых поселенцев планеты Альфа, прибывших туда из различных миров со всех уголков галактик.
Рейтинг:

MPAA: PG-13 - Детям до 13 лет просмотр не желателен
Качество: UHD BDRemux 2160p | Dolby Vision
Формат: MP4
Видео: HEVC, 44.3 Mбит/с, 3840x2160
Аудио: Русский (AC3, 6 ch, 640 Кбит/с)
Данный вид релизов (контейнер MP4) предназначен для встроенного в ТВ (соответственно, с поддержкой DV) плеер.
Т.Е. Можно использовать как USB flash/HDD, так и DLNA / Plex - подобные сервисы/программы. дополнительный-внешний плеер не обязателен.

Внимание!
На моделях LG 2016 возможны сюрпризы "через раз", 2017-2018 должно идти без сюрпризов )
Общее
Полное имя : Valerian.and.the.City.of.a.Thousand.Planets.2017.UHD.BDRemux.2160p.DV.IVA.RUS.ExKinoRay.mp4
Формат : MPEG-4
Профиль формата : Base Media / Version 2
Идентификатор кодека : mp42 (mp42/iso6/isom/msdh/dby1)
Размер файла : 51,0 Гбайт
Продолжительность : 2 ч. 17 м.
Общий поток : 53,3 Мбит/сек
Дата кодирования : UTC 2019-01-16 01:36:16
Дата пометки : UTC 2019-01-16 01:36:16

Видео #1
Идентификатор : 1
Формат : HEVC
Формат/Информация : High Efficiency Video Coding
Коммерческое название : HDR10
Профиль формата : Main [email protected]@High
Идентификатор кодека : hev1
Идентификатор кодека/Информация : High Efficiency Video Coding
Продолжительность : 2 ч. 17 м.
Битрейт : 44,4 Мбит/сек
Ширина : 3840 пикселей
Высота : 2160 пикселей
Соотношение сторон : 16:9
Режим частоты кадров : Постоянный
Частота кадров : 23,976 (24000/1001) кадра/сек
Цветовое пространство : YUV
Субдискретизация насыщенности : 4:2:0 (Type 2)
Битовая глубина : 10 бит
Бит/(Пиксели*Кадры) : 0.223
Размер потока : 42,5 Гбайт (83%)
Default : Нет
Дата кодирования : UTC 2019-01-16 01:36:16
Дата пометки : UTC 2019-01-16 01:36:16
Цветовой диапазон : Limited
Основные цвета : BT.2020
Характеристики трансфера : PQ
Коэффициенты матрицы : BT.2020 non-constant
MasteringDisplay_ColorPrimaries : Display P3
MasteringDisplay_Luminance : min: 0.0050 cd/m2, max: 1000 cd/m2
MaxCLL : 632 cd/m2
MaxFALL : 298 cd/m2
Codec configuration box : hvcC

Видео #2
Идентификатор : 2
Формат : HEVC
Формат/Информация : High Efficiency Video Coding
Коммерческое название : HDR10
Профиль формата : Main [email protected]@High
Dolby Vision : 1.0, dvhe.07.06, EL+RPU
Идентификатор кодека : dvhe
Идентификатор кодека/Информация : High Efficiency Video Coding with Dolby Vision
Продолжительность : 2 ч. 17 м.
Битрейт : 8265 Кбит/сек
Ширина : 1920 пикселей
Высота : 1080 пикселей
Соотношение сторон : 16:9
Режим частоты кадров : Постоянный
Частота кадров : 23,976 (24000/1001) кадра/сек
Цветовое пространство : YUV
Субдискретизация насыщенности : 4:2:0 (Type 2)
Битовая глубина : 10 бит
Бит/(Пиксели*Кадры) : 0.166
Размер потока : 7,91 Гбайт (16%)
Default : Нет
Дата кодирования : UTC 2019-01-16 01:36:16
Дата пометки : UTC 2019-01-16 01:36:16
Цветовой диапазон : Limited
Основные цвета : BT.2020
Характеристики трансфера : PQ
Коэффициенты матрицы : BT.2020 non-constant
MasteringDisplay_ColorPrimaries : Display P3
MasteringDisplay_Luminance : min: 0.0050 cd/m2, max: 1000 cd/m2
Codec configuration box : hvcC+dvcC

Аудио
Идентификатор : 3
Формат : AC-3
Формат/Информация : Audio Coding 3
Коммерческое название : Dolby Digital
Идентификатор кодека : ac-3
Продолжительность : 2 ч. 17 м.
Вид битрейта : Постоянный
Битрейт : 640 Кбит/сек
Каналы : 6 каналов
Channel layout : L R C LFE Ls Rs
Частота : 48,0 КГц
Частота кадров : 31,250 кадров/сек (1536 SPF)
Битовая глубина : 16 бит
Метод сжатия : С потерями
Размер потока : 627 Мбайт (1%)
Язык : Russian
ServiceKind/String : Complete Main
Default : Нет
Дата кодирования : UTC 2019-01-16 01:36:16
Дата пометки : UTC 2019-01-16 01:36:16
pb.wtf



Скачать Валериан и город тысячи планет через торрент https://d.radikal.ru/d04/1901/99/d194788b5784.png Скачать, смотреть онлайн Валериан и город тысячи планет бесплантно в хорошем качестве Описание: 2700 год. Валериан и Лорелин - космические спецагенты, которые по долгу службы впутались в подозрительное дело и стали невольными ... 10 10 3
Info! Золотая раздача, скачанное не засчитывается.
Торрент: Зарегистрирован [2019-01-16 11:13] · скачан: 100 раз
Статус: √ проверено
Размер: 51.03 GB
Как cкачать? Как скачать Валериан и город тысячи планет через торрент | UTorrent

% Раздел Тема Автор DL S | L
Фильмы (HD 720p, 1080p) (48-60 fps) [ 5.92 GB ] Валериан и город тысячи планет / Valerian and the City of a Thousand Planets [2017 BDRip 720p 60 fps от еnvy / NNNB] NOR-Transfer | DUB еnvy Скачать
6 | 1
Ultra HD (UHD: 2K, 4K, 8K) — видео сверхвысокой чёткости [ 59.55 GB ] Валериан и город тысячи планет / Valerian and the City of a Thousand Planets [2017 UHD Blu-ray 2160p] - [] sheker187 Скачать
1 | 0
Фильмы (HD 720p, 1080p) (48-60 fps) [ 20.2 GB ] Валериан и город тысячи планет / Valerian and the City of a Thousand Planets [2017 NOR-Transfer BDRip 1080p / 60 FPS Dub Original] Tiberiumsun69 Скачать
4 | 0
Фильмы с авторской озвучкой [ 2.75 GB ] Валериан и город тысячи планет / Valerian and the City of a Thousand Planets [2017 BDRip] 2x[AVO] killermax2013 Скачать
1 | 0
Фильмы [HD 720p, 1080p] (Хороший звук DUB, MVO) [ 6.14 GB ] Валериан и город тысячи планет / Valerian and the City of a Thousand Planets [2017 BDRip 720p] [NOR-Transfer] DUB [] potroks Скачать
1 | 0
Фильмы [HD 720p, 1080p] (Хороший звук DUB, MVO) [ 8.18 GB ] Валериан и город тысячи планет / Valerian and the City of a Thousand Planets [2017 BDRip-HEVC 1080p] [] + [AVO] killermax2013 Скачать
1 | 0
Фильмы 2017 [DVDrip, WEB-DLRip, HDrip] (DUB, MVO) [ 4.26 GB ] Валериан и город тысячи планет / Valerian and the City of a Thousand Planets [2017 BDRip-AVC] sokol_ok Скачать
2 | 0

28-11-2019 20:33  

Отключить вcю реклaмy на сайте

    Дорогой пользователь! Огромная просьба, поблагодарите релизера, оцените раздачу и оставьте свои комментарий, если Вы скачали Валериан и город тысячи планет через торрент бесплатно!
    Комментировать посты могут только пользователи прошедшие не сложную регистрацию
    Показать сообщения:    

    Валериан и город тысячи планет через торрент
    Скачать бесплатно Валериан и город тысячи планет
    Валериан и город тысячи планет скачать торрент
    Валериан и город тысячи планет смотреть онлайн
    Cкачать фильм Валериан и город тысячи планет бесплатно
    Валериан и город тысячи планет скачать торрент в хорошем качестве
    Валериан и город тысячи планет смотреть онлайн бесплатно в хорошем качестве


    Вы не можете начинать темы
    Вы не можете отвечать на сообщения
    Вы не можете редактировать свои сообщения
    Вы не можете удалять свои сообщения
    Вы не можете голосовать в опросах
    Вы не можете прикреплять файлы к сообщениям
    Вы можете скачивать файлы