Ссылка на приватное зеркало нашего сайта всего за 1$. Внимание количество ограничено!!!

2 сезон

iTunes

1 сезон

1

2 сезон

2 сезон

iTunes

1 сезон

RePack

30

Ultimate

ВАЖНО

ИГРА 18+

pack

RePack

MK11
pack

Забери бонус

RePack

jed

!!Акция!!

Alien_Rage

RePack

fifa19

RePack

Assassins Creed: Odyssey

RePack

NEED FOR SPEED™ PAYBACK

4 сезон

9 сезон

Бесстыжие 9 сезон

Все сериалы

все сериалы на PB.wtf

RePack

FAR CRY 5
  

Ладога / Серии: 1-4 из 4 (Александр Велединский) [2014, Драма, военный, WEB-DL 720p] pb.wtf

Ладога через торрент pb.wtf

Размер: 4.05 GB | Добавлен: 1 год 10 мес. назад | Торрент скачан:142 раза
Скачать  

18-01-2019 07:10 Ладога Скачать торрент  

ЛадогаГод выпуска: 2014
Страна: Россия
Жанр: Драма, военный
Продолжительность: ~00:50:00
Перевод: Не требуется
Субтитры: отсутствуют

Режиссер: Александр Велединский

rating

В ролях:

Ксения Раппопорт, Алексей Серебряков, Андрей Мерзликин, Дмитрий Назаров, Юрий Кузнецов, Виталий Коваленко, Яков Шамшин, Анна Блинова, Филипп Ершов, Олег Федоров, Алексей Ведерников, Юлия Ауг

Описание:

Блокадный Ленинград. Зима 1941-го. Советская контрразведка узнает, что немцы готовят диверсию на "Дороге жизни" – единственном пути, по которому в город доставляется продовольствие и другие грузы. Скорее всего, диверсант - один из водителей "полуторок", работающих на замерзшем Ладожском озере. Найти и остановить врага должен капитан НКВД Сергиенко…

Качество: WEB-DL 720p
Формат: MKV

Видео: AVC, 1280x720, 2569 kbps
Аудио: AC3, 2 ch, 192 Кбит/с
скриншот  скриншот  скриншот  

Общее
Уникальный идентификатор : 212143722998492918211720523268209499803 (0x9F996515C8E53270B819E257F333DE9B)
Полное имя : D:\Ladoga.2013.720p.MegaPeer\Ladoga.e01.720p.MegaPeer.mkv
Формат : Matroska
Версия формата : Version 2
Размер файла : 1,01 Гбайт
Продолжительность : 52 м. 43 с.
Общий поток : 2754 Кбит/сек
Дата кодирования : UTC 2019-01-18 06:45:23
Программа кодирования : mkvmerge v6.1.0 ('Old Devil') built on Mar 4 2013 09:10:42
Библиотека кодирования : libebml v1.3.0 + libmatroska v1.4.0

Видео
Идентификатор : 1
Формат : AVC
Формат/Информация : Advanced Video Codec
Профиль формата : High@L4
Параметр CABAC формата : Да
Параметр RefFrames формата : 4 кадра
Идентификатор кодека : V_MPEG4/ISO/AVC
Продолжительность : 52 м. 43 с.
Битрейт : 2569 Кбит/сек
Ширина : 1280 пикселей
Высота : 720 пикселей
Соотношение сторон : 16:9
Режим частоты кадров : Постоянный
Частота кадров : 25,000 кадров/сек
Цветовое пространство : YUV
Субдискретизация насыщенности : 4:2:0
Битовая глубина : 8 бит
Тип развёртки : Прогрессивная
Бит/(Пиксели*Кадры) : 0.112
Размер потока : 946 Мбайт (91%)
Библиотека кодирования : x264 core 142
Настройки программы : cabac=1 / ref=3 / deblock=1:0:0 / analyse=0x3:0x113 / me=hex / subme=7 / psy=1 / psy_rd=1.00:0.00 / mixed_ref=1 / me_range=16 / chroma_me=1 / trellis=1 / 8x8dct=1 / cqm=0 / deadzone=21,11 / fast_pskip=1 / chroma_qp_offset=-2 / threads=108 / lookahead_threads=5 / sliced_threads=0 / nr=0 / decimate=1 / interlaced=0 / bluray_compat=0 / constrained_intra=0 / bframes=6 / b_pyramid=2 / b_adapt=1 / b_bias=0 / direct=1 / weightb=1 / open_gop=0 / weightp=2 / keyint=50 / keyint_min=26 / scenecut=0 / intra_refresh=0 / rc_lookahead=40 / rc=2pass / mbtree=1 / bitrate=2569 / ratetol=1.0 / qcomp=0.60 / qpmin=0 / qpmax=69 / qpstep=4 / cplxblur=20.0 / qblur=0.5 / vbv_maxrate=3854 / vbv_bufsize=10279 / nal_hrd=none / filler=0 / ip_ratio=1.40 / aq=1:1.00
Default : Да
Forced : Нет

Аудио
Идентификатор : 2
Формат : AC-3
Формат/Информация : Audio Coding 3
Расширение режима : CM (complete main)
Параметр Endianness формата : Big
Идентификатор кодека : A_AC3
Продолжительность : 52 м. 43 с.
Вид битрейта : Постоянный
Битрейт : 192 Кбит/сек
Каналы : 2 канала
Расположение каналов : Front: L R
Частота : 48,0 КГц
Частота кадров : 31,250 кадров/сек (1536 spf)
Метод сжатия : С потерями
Размер потока : 72,4 Мбайт (7%)
Default : Да
Forced : Нет

pb.wtf



Скачать Ладога через торрент https://i84.fastpic.ru/big/2019/0118/83/ac64a447f691108eb1cbc2a30566e183.jpg Скачать фильм Ладога через торрент бесплантно в хорошем качестве Описание: Блокадный Ленинград. Зима 1941-го. Советская контрразведка узнает, что немцы готовят диверсию на "Дороге жизни" – единственном ... 10 10 3
Торрент: Зарегистрирован [2019-01-18 07:10] · скачан: 142 раз
Статус: √ проверено
Размер: 4.05 GB
Как cкачать? Как скачать Ладога через торрент | qTorrent

% Раздел Тема Автор DL S | L
Наши сериалы [ 16.84 GB ] Ладога - дорога жизни / Серии: 1-4 из 4 [2014 военный HDTV 1080i] bober100 Скачать
1 | 0
Наши фильмы (HD, WEB-DL 720p, 1080p) [ 7.39 GB ] Ладога - дорога жизни [2014 военный HDTVRip 720p] кэп Скачать
1 | 0
Наши фильмы (HD, WEB-DL 720p, 1080p) [ 8.08 GB ] Ладога [2013 Россия военный HDTV 1080i] Ворон Скачать
1 | 0


Последний раз редактировалось: bober100 (2019-01-19 09:57), всего редактировалось 1 раз

28-11-2019 20:33  

Отключить всю рекламу на сайте

18-01-2019 14:24 Ладога Скачать торрент  

очередной патриотфильм,тошно. pb.wtf



18-01-2019 17:39 Ладога Скачать торрент  

Автору спасибо,фильм отличный,это напоминание диванным хомячкам,какой ценой далась эта победа нашей Родине-СССР.pb.wtf



    Дорогой пользователь! Огромная просьба, поблагодарите релизера, оцените раздачу и оставьте свои комментарий, если Вы скачали Ладога через торрент бесплатно! Внесите свою лепту в развитие PiratBit!
    Комментировать посты могут только пользователи прошедшие не сложную регистрацию
    Показать сообщения:    

    Ладога через торрент
    Скачать бесплатно Ладога
    Ладога скачать торрент
    Ладога смотреть онлайн
    Cкачать фильм Ладога бесплатно
    Ладога скачать торрент в хорошем качестве
    Ладога смотреть онлайн бесплатно в хорошем качестве


    Вы не можете начинать темы
    Вы не можете отвечать на сообщения
    Вы не можете редактировать свои сообщения
    Вы не можете удалять свои сообщения
    Вы не можете голосовать в опросах
    Вы не можете прикреплять файлы к сообщениям
    Вы можете скачивать файлы