Всегда рабочее зеркало без VPN и Proxy просто перед .vidak.icu напиши любое слово или цифру, Пример http://9xef.vidak.icu

MVO

MVO

1 сезон

1

1 сезон

iTunes

1 сезон

13

1 сезон

Deluxe

pack

Рекомендуем

Repack

30

ВАЖНО

RePack

MK11

RePack

jed

RePack

fifa19

RePack

RDR2

RePack

NEED FOR SPEED™ PAYBACK

Кинопоиск HD

6 сезон

 Острые козырьки 6 сезон

Все сериалы

все сериалы на PB.wtf

RePack

FAR CRY 5
  
Magnet ссылка

Меч чужака / Sword of the Stranger (Андо Масахиро) [2007 г., аниме, мультфильм, боевик, приключения, BDRip, MVO, + Оригинал] pb.wtf

Меч чужака через торрент pb.wtf

Размер: 1.29 GB | Добавлен: 9 лет 7 мес. назад | Торрент скачан:370 раз
Смотреть онлайн Меч чужака | Скачать    Ребята, помогите собрать деньги на оплату серверов!!!

05-01-2013 19:41 Меч чужака Скачать торрент  

Меч чужака / Sword of the Stranger
Год выпуска: 2007
Страна: Япония
Жанр: аниме, мультфильм, боевик, приключения
Продолжительность: 01:43:00
Перевод: Профессиональный многоголосый, + Оригинал
Режиссер: Андо Масахиро
Продюссер: Масахико Минами
Сценарий: Такаяма Фумихико
Премьера в мире: 29 сентября 2007
В ролях: Юри Чинен, Томоя Нагасе,Акио Ютсука, Кайл Райдаут, Наото Такэнака, Коити Ямадера
Описание: История разворачивается в древней Японии. Группа войнов под предвадительством старого алхимика прибыли в страну Восходящего Солнца из далекой Поднебесной для демонстрации новинок вооружения. Однако это только для прикрытия: они добывают ингридиенты для напитка бессмертия, предназначенного китайскому императору. Последней составляющей является дитя, рождающееся раз в сто лет - храбрый мальчик-сирота, который спешит со своим верным псом через всю страну укрыться в одном из монастырей. На своем пути мальчик встречает храброго безымянного путника, владеющего искусством поединка, и предлагает ему быть сопровождающим в этом непростом пути...
Качество: BDRip
Формат: AVI
Видео кодек: XviD
Аудио кодек: MP3
Видео: 704x400 (1.76:1), 23.976 fps, XviD build 50 ~1398 kbps avg, 0.21 bit/pixel
Аудио#1: RU, 48 kHz, MPEG Layer 3, 2 ch, ~192.00 kbps avg / Любительский (многоголосый, закадровый - группа "Shinobi"/ перевод BakaNyaka)
Аудио#2: JP, 48 kHz, MPEG Layer 3, 2 ch, ~192.00 kbps avg (Japanese)
скриншот   скриншот   скриншот   скриншот   скриншот   скриншот  

General
Complete name : E:ЗагрузкиSword_Of_The_Stranger.avi
Format : AVI
Format/Info : Audio Video Interleave
File size : 1.29 GiB
Duration : 1h 42mn
Overall bit rate : 1 798 Kbps
Writing application : VirtualDubMod 1.5.10.2 (build 2542/release)
Writing library : VirtualDubMod build 2542/release

Video
ID : 0
Format : MPEG-4 Visual
Format profile : Advanced [email protected]
Format settings, BVOP : 2
Format settings, QPel : No
Format settings, GMC : No warppoints
Format settings, Matrix : Default (H.263)
Codec ID : XVID
Codec ID/Hint : XviD
Duration : 1h 42mn
Bit rate : 1 400 Kbps
Width : 704 pixels
Height : 400 pixels
Display aspect ratio : 16:9
Frame rate : 23.976 fps
Color space : YUV
Chroma subsampling : 4:2:0
Bit depth : 8 bits
Scan type : Progressive
Compression mode : Lossy
Bits/(Pixel*Frame) : 0.207
Stream size : 1.00 GiB (78%)
Writing library : XviD 1.2.1 (UTC 2008-12-04)

Audio #1
ID : 1
Format : MPEG Audio
Format version : Version 1
Format profile : Layer 3
Mode : Joint stereo
Codec ID : 55
Codec ID/Hint : MP3
Duration : 1h 42mn
Bit rate mode : Constant
Bit rate : 192 Kbps
Channel(s) : 2 channels
Sampling rate : 48.0 KHz
Compression mode : Lossy
Stream size : 141 MiB (11%)
Alignment : Aligned on interleaves
Interleave, duration : 42 ms (1.00 video frame)
Interleave, preload duration : 504 ms
Title : Russian

Audio #2
ID : 2
Format : MPEG Audio
Format version : Version 1
Format profile : Layer 3
Mode : Joint stereo
Codec ID : 55
Codec ID/Hint : MP3
Duration : 1h 42mn
Bit rate mode : Constant
Bit rate : 192 Kbps
Channel(s) : 2 channels
Sampling rate : 48.0 KHz
Compression mode : Lossy
Stream size : 141 MiB (11%)
Alignment : Aligned on interleaves
Interleave, duration : 42 ms (1.00 video frame)
Interleave, preload duration : 504 ms
Title : Japanese

pb.wtf



Скачать Меч чужака через торрент https://pic1.kartinco.top/images/111/ozbil1j6vq.png Скачать, смотреть онлайн Меч чужака бесплантно в хорошем качестве Описание: История разворачивается в древней Японии. Группа войнов под предвадительством старого алхимика прибыли в страну Восходящего ... 10 10 6
Info! Золотая раздача, скачанное не засчитывается.
Торрент: Зарегистрирован [2013-01-05 19:41] · скачан: 370 раз
Статус: √ проверено
Размер: 1.29 GB
Как cкачать? Как скачать Меч чужака через торрент | UTorrent

% Раздел Тема Автор DL S | L
Аниме [DVDrip, WEB-DLRip, HDrip] [ 1.1 GB ] Меч чужака / Sword of the Stranger [2007 ​ самурайский DVDRip] NarutoSasuke Скачать
1 | 0

28-11-2019 20:33  

Отключить вcю реклaмy на сайте

05-01-2013 20:14 Меч чужака Скачать торрент  

манускрипт ниндзя лучше !!!!!!!!!!!!!!!!pb.wtf



05-01-2013 22:01 Меч чужака Скачать торрент  

Миллион баксов на счету ЛУЧШЕ!!!!!!!!!!pb.wtf



06-01-2013 05:05 Меч чужака Скачать торрент  

помолчите лучше!!!!!!!!pb.wtf



06-01-2013 08:12 Меч чужака Скачать торрент  

Не смотрел манускрипт но это очень даже гуд:)pb.wtf



10-01-2013 12:12 Меч чужака Скачать торрент  

Зачётный мульт!pb.wtf



09-11-2013 13:23 Меч чужака Скачать торрент  

раздайте пжлстpb.wtf



23-08-2015 09:19 Меч чужака Скачать торрент  

Teddy, раздавать будем нет?pb.wtf



18-01-2019 18:07 Меч чужака Скачать торрент  

Дайте скорость)pb.wtf



    Дорогой пользователь! Огромная просьба, поблагодарите релизера, оцените раздачу и оставьте свои комментарий, если Вы скачали Меч чужака через торрент бесплатно!
    Комментировать посты могут только пользователи прошедшие не сложную регистрацию
    Показать сообщения:    

    Меч чужака через торрент
    Скачать бесплатно Меч чужака
    Меч чужака скачать торрент
    Меч чужака смотреть онлайн
    Cкачать фильм Меч чужака бесплатно
    Меч чужака скачать торрент в хорошем качестве
    Меч чужака смотреть онлайн бесплатно в хорошем качестве


    Вы не можете начинать темы
    Вы не можете отвечать на сообщения
    Вы не можете редактировать свои сообщения
    Вы не можете удалять свои сообщения
    Вы не можете голосовать в опросах
    Вы не можете прикреплять файлы к сообщениям
    Вы можете скачивать файлы