Всегда рабочее зеркало без VPN и Proxy просто перед .vidak.icu напиши любое слово или цифру, Пример http://i1o3.vidak.icu

MVO

2 сезон

2 сезон

1

1 сезон

iTunes

2 сезон

13

1 сезон

Распродажа

pack

Рекомендуем

Пиратка

30

ВАЖНО

RePack

MK11

RePack

jed

RePack

fifa19

RePack

RDR2

RePack

NEED FOR SPEED™ PAYBACK

Кинопоиск HD

6 сезон

 Острые козырьки 6 сезон

Все сериалы

все сериалы на PB.wtf

RePack

FAR CRY 5

Anonymous, нам критически не хватает 5601 руб. на оплату серверов и переферии за Апрель, помоги нам пожалуйста, вся надежда только на тебя. В благодарность мы отключим тебе всю рекламу на сайте!

×
  
Magnet ссылка

Королева бандитов / Bandit Queen (Шекхар Капур) [1994 г., драма, BDRip 1080p] AVO (Л. Володарский) pb.wtf

Королева бандитов через торрент pb.wtf

Размер: 10.09 GB | Добавлен: 3 года 3 мес. назад | Торрент скачан:4 раза
Смотреть онлайн Королева бандитов | Скачать    Ребята, помогите собрать деньги на оплату серверов!!!

21-01-2019 19:37 Королева бандитов Скачать торрент  

Королева бандитов / Bandit Queen
Год выпуска: 1994

Страна: Великобритания, Индия

Жанр: Драма

Продолжительность: 01:59:41

Перевод: Авторский (одноголосый) - Л.Володарский

Субтитры: Английские (вшитые)

Режиссер: Шекхар Капур

rating

В ролях: Сима Бисвас, Адитья Шривастав, Анирудх Агарвал, Анил Саху, Анупам Шийам, Ашок Шарма

Описание: Эта действительная история, основанная на дневниках, написанных в тюрьме Фулан Деви - «Богиней бандитов», начинается летом 1968 года в Индии. В 11 лет родители одной из низших каст продали её замуж. Не выдержав тяжелой работы, «любви» и побоев мужа, она бежала...
Качество: BDRip 1080p
Формат: MKV
Видео кодек: MPEG-4 AVC
Аудио кодек: AC3, DTS
Видео: MPEG-4 AVC, 9956 Кбит/с, 1920x1080
Аудио#1: Русский, AC3, 2 ch, 192 Кбит/с
Аудио#2: Хинди, DTS, 2 ch, 768 Кбит/с
Аудио#3: Английский, DTS, 2 ch, 384 Кбит/с - [Commentary: Shekhar Kapur]
Аудио#4: DTS, 2 ch, 768 Кбит/с - [Isolated Score]
Видео
Идентификатор : 1
Формат : AVC
Формат/Информация : Advanced Video Codec
Профиль формата : High@L4.1
Настройки формата : CABAC / 4 Ref Frames
Параметр CABAC формата : Да
Параметр RefFrames формата : 4 кадра
Идентификатор кодека : V_MPEG4/ISO/AVC
Продолжительность : 1 ч. 59 м.
Битрейт : 9956 Кбит/сек
Ширина : 1920 пикселей
Высота : 1080 пикселей
Соотношение сторон : 16:9
Режим частоты кадров : Постоянный
Частота кадров : 23,976 (24000/1001) кадра/сек
Цветовое пространство : YUV
Субдискретизация насыщенности : 4:2:0
Битовая глубина : 8 бит
Тип развёртки : Прогрессивная
Бит/(Пиксели*Кадры) : 0.200
Размер потока : 8,32 Гбайт (82%)
Заголовок : x264 | 9956 Kbps | 23.976 fps | 1.78:1
Библиотека кодирования : x264 core 146 r2538 121396c
Настройки программы : cabac=1 / ref=4 / deblock=1:-3:-3 / analyse=0x3:0x133 / me=umh / subme=9 / psy=1 / psy_rd=1.00:0.00 / mixed_ref=1 / me_range=24 / chroma_me=1 / trellis=1 / 8x8dct=1 / cqm=0 / deadzone=21,11 / fast_pskip=0 / chroma_qp_offset=-2 / threads=6 / lookahead_threads=1 / sliced_threads=0 / nr=0 / decimate=0 / interlaced=0 / bluray_compat=0 / constrained_intra=0 / bframes=4 / b_pyramid=2 / b_adapt=2 / b_bias=0 / direct=1 / weightb=1 / open_gop=0 / weightp=2 / keyint=230 / keyint_min=23 / scenecut=40 / intra_refresh=0 / rc_lookahead=60 / rc=2pass / mbtree=1 / bitrate=9956 / ratetol=1.0 / qcomp=0.60 / qpmin=0 / qpmax=69 / qpstep=4 / cplxblur=20.0 / qblur=0.5 / vbv_maxrate=40000 / vbv_bufsize=30000 / nal_hrd=none / filler=0 / ip_ratio=1.40 / aq=1:1.00
Язык : Hindi
Default : Да
Forced : Нет

Аудио #1
Идентификатор : 2
Формат : AC-3
Формат/Информация : Audio Coding 3
Коммерческое название : Dolby Digital
Идентификатор кодека : A_AC3
Продолжительность : 1 ч. 59 м.
Вид битрейта : Постоянный
Битрейт : 192 Кбит/сек
Каналы : 2 канала
Channel layout : L R
Частота : 48,0 КГц
Частота кадров : 31,250 кадров/сек (1536 SPF)
Битовая глубина : 16 бит
Метод сжатия : С потерями
Размер потока : 164 Мбайт (2%)
Заголовок : Л. Володарский
Язык : Russian
ServiceKind/String : Complete Main
Default : Нет
Forced : Да

Аудио #2
Идентификатор : 3
Формат : DTS
Формат/Информация : Digital Theater Systems
Идентификатор кодека : A_DTS
Продолжительность : 1 ч. 59 м.
Вид битрейта : Постоянный
Битрейт : 768 Кбит/сек
Каналы : 2 канала
Channel layout : L R
Частота : 48,0 КГц
Частота кадров : 93,750 кадра/сек (512 SPF)
Битовая глубина : 24 бит
Метод сжатия : С потерями
Размер потока : 657 Мбайт (6%)
Заголовок : [Feature] DTS | 768 Kbps | 24 bits | 48 KHz | 2 chan
Язык : Hindi
Default : Нет
Forced : Нет

Аудио #3
Идентификатор : 4
Формат : DTS
Формат/Информация : Digital Theater Systems
Идентификатор кодека : A_DTS
Продолжительность : 1 ч. 59 м.
Вид битрейта : Постоянный
Битрейт : 384 Кбит/сек
Каналы : 2 канала
Channel layout : L R
Частота : 48,0 КГц
Частота кадров : 93,750 кадра/сек (512 SPF)
Битовая глубина : 16 бит
Метод сжатия : С потерями
Размер потока : 329 Мбайт (3%)
Заголовок : [Commentary: Shekhar Kapur] DTS | 384 Kbps | 16 bits | 48 KHz | 2 chan
Язык : English
Default : Нет
Forced : Нет

Аудио #4
Идентификатор : 5
Формат : DTS
Формат/Информация : Digital Theater Systems
Идентификатор кодека : A_DTS
Продолжительность : 1 ч. 59 м.
Вид битрейта : Постоянный
Битрейт : 768 Кбит/сек
Каналы : 2 канала
Channel layout : L R
Частота : 48,0 КГц
Частота кадров : 93,750 кадра/сек (512 SPF)
Битовая глубина : 24 бит
Метод сжатия : С потерями
Размер потока : 657 Мбайт (6%)
Заголовок : [Isolated Score] DTS | 768 Kbps | 24 bits | 48 KHz | 2 chan
Default : Нет
Forced : Нет

Меню
00:00:00.000 : :00:00:00.000
00:05:30.080 : :00:05:30.080
00:11:57.550 : :00:11:57.550
00:14:32.121 : :00:14:32.121
00:19:04.268 : :00:19:04.268
00:26:24.374 : :00:26:24.374
00:29:43.949 : :00:29:43.949
00:34:54.050 : :00:34:54.050
00:40:15.330 : :00:40:15.330
00:45:34.357 : :00:45:34.357
00:50:02.625 : :00:50:02.625
00:56:09.616 : :00:56:09.616
01:01:24.890 : :01:01:24.890
01:05:46.943 : :01:05:46.943
01:09:12.065 : :01:09:12.065
01:17:06.831 : :01:17:06.831
01:21:48.654 : :01:21:48.654
01:25:00.262 : :01:25:00.262
01:31:39.285 : :01:31:39.285
01:35:04.866 : :01:35:04.866
01:40:11.255 : :01:40:11.255
01:45:13.933 : :01:45:13.933
01:49:13.088 : :01:49:13.088
01:58:03.576 : :01:58:03.576

скриншот   скриншот   скриншот   скриншот   скриншот  

pb.wtf



Скачать Королева бандитов через торрент https://pic1.kartinco.top/images/12/8aukp.jpg Скачать, смотреть онлайн Королева бандитов бесплантно в хорошем качестве Описание: Эта действительная история, основанная на дневниках, написанных в тюрьме Фулан Деви - «Богиней бандитов», начинается летом 1968 ... 5 10 1
Торрент: Зарегистрирован [2019-01-21 19:37] · скачан: 4 раз
Статус: # сомнительно
Размер: 10.09 GB
Как cкачать? Как скачать Королева бандитов через торрент | UTorrent

% Раздел Тема Автор DL S | L
Индийское кино [ 1.45 GB ] Королева бандитов / Bandit Queen [1994 биография BDRip] AVO koenig Скачать
1 | 0

28-11-2019 20:33  

Отключить всю рекламу на сайте

    Дорогой пользователь! Огромная просьба, поблагодарите релизера, оцените раздачу и оставьте свои комментарий, если Вы скачали Королева бандитов через торрент бесплатно!
    Комментировать посты могут только пользователи прошедшие не сложную регистрацию
    Показать сообщения:    

    Королева бандитов через торрент
    Скачать бесплатно Королева бандитов
    Королева бандитов скачать торрент
    Королева бандитов смотреть онлайн
    Cкачать фильм Королева бандитов бесплатно
    Королева бандитов скачать торрент в хорошем качестве
    Королева бандитов смотреть онлайн бесплатно в хорошем качестве


    Вы не можете начинать темы
    Вы не можете отвечать на сообщения
    Вы не можете редактировать свои сообщения
    Вы не можете удалять свои сообщения
    Вы не можете голосовать в опросах
    Вы не можете прикреплять файлы к сообщениям
    Вы можете скачивать файлы