Всегда рабочее зеркало без VPN и Proxy просто перед .vidak.icu напиши любое слово или цифру, Пример http://d3tt.vidak.icu

MVO

MVO

1 сезон

1

1 сезон

iTunes

1 сезон

13

1 сезон

Deluxe

pack

Рекомендуем

Repack

30

ВАЖНО

RePack

MK11

RePack

jed

RePack

fifa19

RePack

RDR2

RePack

NEED FOR SPEED™ PAYBACK

Кинопоиск HD

6 сезон

 Острые козырьки 6 сезон

Все сериалы

все сериалы на PB.wtf

RePack

FAR CRY 5
  
Magnet ссылка

Гранд Тур / The Grand Tour / Сезон: 3 / Серии: 1-14 из 14 [2019., Авто-шоу, WEBRip] [MVO] (Jaskier) pb.wtf

Гранд Тур через торрент pb.wtf

Размер: 10.75 GB | Добавлен: 3 года 3 мес. назад | Торрент скачан:168 раз
Смотреть онлайн Гранд Тур | Скачать    Ребята, помогите собрать деньги на оплату серверов!!!

23-01-2019 13:50 Гранд Тур Скачать торрент  

Гранд Тур | The Grand Tour

Год выпуска: 2019
Страна: США, Великобритания
Жанр: Автошоу
Продолжительность: ~ 01:10:00
Перевод: Профессиональный (многоголосый закадровый) | - Jaskier
В ролях: Джереми Кларксон, Ричард Хаммонд и Джэймс Мэй
Описание: Предлагаем вашему вниманию долгожданный многими фанатами автомобилей проект с легендарными ведущими Джереми Кларксоном, Джеймом Мэйем и Ричардом Хаммондом. В центре внимания проекта оказываются автомобили со всего света. Ведущие отправляются в большое путешествие по миру, чтобы найти раритетные модели авто или же невероятные суперкары. В каждом новом городе будет снят очередной эпизод этого шоу, а ведущие проведут тест драйв местных автомобилей, рассказав о них кое-что по-настоящему интересное. На улице любителей "Топ Гира" огромный праздник - "Гранд Тур" вашему вниманию!




Качество: WEBRip
Формат: AVI
Видео: XviD, ~ 1400 kbps, 720x400 (16:9), 25 fps
Аудио 1: MP3, 48,0 КГц, 2 ch, 128 kbps - Rus
Аудио 2: MP3, 48,0 КГц, 2 ch, 128 kbps - Eng
Субтитры: отсутствуют
Перевод и озвучка студия Jaskier
Общее
Полное имя : G:\Загрузки\The.Grand.Tour.S03E01.WEBRip.Rus.Eng.Jaskier.avi
Формат : AVI
Формат/Информация : Audio Video Interleave
Размер файла : 801 Мбайт
Продолжительность : 1 ч. 8 м.
Общий поток : 1625 Кбит/сек
Программа кодирования : VirtualDubMod 1.5.10.3 | www.virtualdub-fr.org || (build 2550/release)
Библиотека кодирования : VirtualDubMod build 2550/release

Видео
Идентификатор : 0
Формат : MPEG-4 Visual
Профиль формата : Advanced [email protected]
Настройки формата : BVOP1 / Custom Matrix
Параметр BVOP формата : 1
Параметр QPel формата : Нет
Параметр GMC формата : Без точки перехода
Параметр матрицы формата : Выборочная
Идентификатор кодека : XVID
Идентификатор кодека/Подсказка : XviD
Продолжительность : 1 ч. 8 м.
Битрейт : 1355 Кбит/сек
Ширина : 720 пикселей
Высота : 400 пикселей
Соотношение сторон : 16:9
Частота кадров : 25,000 кадров/сек
Цветовое пространство : YUV
Субдискретизация насыщенности : 4:2:0
Битовая глубина : 8 бит
Тип развёртки : Прогрессивная
Метод сжатия : С потерями
Бит/(Пиксели*Кадры) : 0.188
Размер потока : 668 Мбайт (83%)
Библиотека кодирования : XviD 73

Аудио #1
Идентификатор : 1
Формат : MPEG Audio
Версия формата : Version 1
Профиль формата : Layer 3
Настройки формата : Joint stereo / MS Stereo
Идентификатор кодека : 55
Идентификатор кодека/Подсказка : MP3
Продолжительность : 1 ч. 8 м.
Вид битрейта : Постоянный
Битрейт : 128 Кбит/сек
Каналы : 2 канала
Частота : 48,0 КГц
Метод сжатия : С потерями
Размер потока : 63,1 Мбайт (8%)
Выравнивание : Соединение по промежуткам
Продолжительность промежутка : 40 мс. (1,00 видеокадр)
Время предзагрузки промежутка : 504 мс.

Аудио #2
Идентификатор : 2
Формат : MPEG Audio
Версия формата : Version 1
Профиль формата : Layer 3
Настройки формата : Joint stereo / MS Stereo
Идентификатор кодека : 55
Идентификатор кодека/Подсказка : MP3
Продолжительность : 1 ч. 8 м.
Вид битрейта : Постоянный
Битрейт : 128 Кбит/сек
Каналы : 2 канала
Частота : 48,0 КГц
Метод сжатия : С потерями
Размер потока : 63,1 Мбайт (8%)
Выравнивание : Соединение по промежуткам
Продолжительность промежутка : 40 мс. (1,00 видеокадр)
Время предзагрузки промежутка : 504 мс.
скриншот  скриншот  скриншот  
Когда раздача ведётся путём добавления новых серий, при каждом добавлении создётся новый торрент. Чтобы начать докачку новой серии, пользователям необходимо сделать следующее:
(1) остановить скачивание,
(2) удалить старый торрент у себя из клиента (старые серии удалять не надо),
(3) скачать новый торрент и запустить его у себя в клиенте вместо старого, при этом указать клиенту путь в старую папку, куда и должно происходить скачивание новых серий.
Ваш клиент при этом должен произвести хеширование (проверку) старой папки (если не производит сам - помогите ему сделать это), и будет докачивать только те серии, которых у вас ещё нет. Старые серии при этом не удаляются, а продолжают раздаваться!
Eсли вы уже удалили старые серии, то предотвратить повторную закачку старых серий можно, отжав галочку в соответсвующих местах при запуске нового торрента. По возможности, желательно не удалять старые серии как можно дольше, чтобы релизёр не столько продолжал раздавать старые серии, а смог сконцентрироваться на новых.

pb.wtf



Скачать Гранд Тур через торрент https://i106.fastpic.ru/big/2019/0123/dc/68b23d65b01129ad95a6d93fd03b75dc.png Скачать, смотреть онлайн Гранд Тур бесплантно в хорошем качестве Описание: Предлагаем вашему вниманию долгожданный многими фанатами автомобилей проект с легендарными ведущими Джереми Кларксоном, Джеймом ... 10 10 10
Info! Золотая раздача, скачанное не засчитывается.
Торрент: Зарегистрирован [2019-04-25 18:01] · скачан: 168 раз
Статус: √ проверено
Размер: 10.75 GB
Как cкачать? Как скачать Гранд Тур через торрент | UTorrent

% Раздел Тема Автор DL S | L
Автоспорт [ 20.77 GB ] Гранд Тур / The Grand Tour / Сезон 3 / Серии 1-14 из 14 [2019. Авто-шоу WEB-DLRip] [MVO] killermax2013 Скачать
1 | 0
Автоспорт [ 102.65 GB ] Гранд Тур / The Grand Tour / Сезон: 3 / Серии: 1-14 из 14 [2019 Авто-шоу UHD WEBRip 2160p] [HDR10] MVO [AlexFilm] bober100 Скачать
1 | 0
Автоспорт [ 66.91 GB ] Гранд Тур / The Grand Tour / Сезон: 3 / Серии: 1-14 из 14 [2019 Авто-шоу WEB-DL 1080p] MVO [AlexFilm] bober100 Скачать
1 | 0
Автоспорт [ 40.44 GB ] Гранд Тур / The Grand Tour / Сезон: 3 / Серии: 1-14 из 14 [2019 Авто-шоу WEB-DL 720p] MVO [AlexFilm] bober100 Скачать
2 | 0
Автоспорт [ 63.13 GB ] Гранд Тур / The Grand Tour / Сезон 3 / Серии 1-14 из 14 [2019. Авто-шоу WEBRip 1080p] [MVO] killermax2013 Скачать
1 | 0
Автоспорт [ 35 GB ] Гранд Тур / The Grand Tour / Сезон: 3 / Серии: 1-14 из 14 [2019. Авто-шоу WEBRip 720p] [MVO] killermax2013 Скачать
1 | 0
Автоспорт [ 59.22 GB ] Гранд Тур / The Grand Tour / Сезон: 3 / Серии: 1-14 из 14 [2019. Авто-шоу WEBRip 1080p] [MVO] killermax2013 Скачать
1 | 0

28-11-2019 20:33  

Отключить вcю реклaмy на сайте

    Дорогой пользователь! Огромная просьба, поблагодарите релизера, оцените раздачу и оставьте свои комментарий, если Вы скачали Гранд Тур через торрент бесплатно!
    Комментировать посты могут только пользователи прошедшие не сложную регистрацию
    Показать сообщения:    

    Гранд Тур через торрент
    Скачать бесплатно Гранд Тур
    Гранд Тур скачать торрент
    Гранд Тур смотреть онлайн
    Cкачать фильм Гранд Тур бесплатно
    Гранд Тур скачать торрент в хорошем качестве
    Гранд Тур смотреть онлайн бесплатно в хорошем качестве


    Вы не можете начинать темы
    Вы не можете отвечать на сообщения
    Вы не можете редактировать свои сообщения
    Вы не можете удалять свои сообщения
    Вы не можете голосовать в опросах
    Вы не можете прикреплять файлы к сообщениям
    Вы можете скачивать файлы