Ссылка на приватное зеркало нашего сайта всего за 1$. Внимание количество ограничено!!!

2 сезон

iTunes

1 сезон

1

iTunes

iTunes

iTunes

1 сезон

RePack

30

ИГРА 18+

pack

ВАЖНО

!!Акция!!

Alien_RageХит недели

RePack

MK11
pack

Забери бонус

RePack

jed

!!Акция!!

Alien_Rage

RePack

fifa19

RePack

Assassins Creed: Odyssey

RePack

NEED FOR SPEED™ PAYBACK

4 сезон

9 сезон

Бесстыжие 9 сезон

Все сериалы

все сериалы на PB.wtf

RePack

FAR CRY 5
  

Сборник мультфильмов. Клуб весёлых человечков. (Борис Дежкин, Петр Носов, Вахтанг Бахтадзе) [1959-1965, СССР, мультфильм, короткометражка, DVDRip, SATRip, VHSRip от AVP Studio] pb.wtf

Сборник мультфильмов. Клуб весёлых человечков. через торрент pb.wtf

Размер: 1.08 GB | Добавлен: 1 год 8 мес. назад | Торрент скачан:20 раз
Скачать  

25-01-2019 09:51 Сборник мультфильмов. Клуб весёлых человечков. Скачать торрент  

Ровно в три пятнадцать, Винтик и Шпунтик – веселые мастера, Незнайка учится, Самоделкин-спортсмен, Где я его видел?
Страна: СССР
Производство: Союзмультфильм

Жанр: мультфильм, короткометражка
Год выпуска: 1959-1965
Продолжительность: (01:32:23) 00:19:56, 00:18:55, 00:20:00, 00:23:38, 00:09:54

Перевод: не требуется
Оригинальная аудиодорожка: русский
Cубтитры: нет

Режиссер: Борис Дежкин, Петр Носов, Вахтанг Бахтадзе

Описание:
Ровно в три пятнадцать... (1959) Музыкальная сказка-шутка с участием Чипполино, Буратино, Петрушки и других героев.
Винтик и Шпунтик – веселые мастера (1960) Экранизация современной сказки Н. Носова о человечках-инструментах Винтике и Шпунтике, которые умело решают разные технические трудности.
Незнайка учится (1961) По сказке Николая Носова «Приключения Незнайки и его друзей».
Самоделкин-спортсмен (1962) Самоделкин — необычный металлический человечек, его тело состоит из батарейки, пружин, болта, а вместо носа у него винтик.
Где я его видел? (1965) В клуб веселых человечков приходит Обещалкин. он просит принять его в клуб и обещает приготовить концертный номер для выступления.

Исходник: DVD5 R5, DVB, VHS
Качество: DVDRip, SATRip, VHSRip
Формат: AVI

Видео: 688x512 (4:3), 25 fps, XviD ~ 1474 kbps avg, 0.167 bit/pixel
Аудио: 48 kHz, Dolby Digital AC3 2,0, 192 kbps

Раздача от:
Общее
Полное имя : Klub.vesyolyh.chelovechkov.1959-65.Rip_[New-team]_by_AVP_Studio.avi
Формат : AVI
Формат/Информация : Audio Video Interleave
Размер файла : 239 Мбайт
Продолжительность : 19 м. 55 с.
Общий поток : 1675 Кбит/сек
Программа кодирования : VirtualDubMod 1.5.10.3 | www.virtualdub-fr.org || (build 2550/release)
Библиотека кодирования : VirtualDubMod build 2550/release

Видео
Идентификатор : 0
Формат : MPEG-4 Visual
Профиль формата : Advanced Simple@L5
Настройки формата : BVOP1 / Custom Matrix
Параметр BVOP формата : 1
Параметр QPel формата : Нет
Параметр GMC формата : Без точки перехода
Параметр матрицы формата : Выборочная
Идентификатор кодека : XVID
Идентификатор кодека/Подсказка : XviD
Продолжительность : 19 м. 55 с.
Битрейт : 1474 Кбит/сек
Ширина : 688 пикселей
Высота : 512 пикселей
Соотношение сторон : 4:3
Частота кадров : 25,000 кадров/сек
Цветовое пространство : YUV
Субдискретизация насыщенности : 4:2:0
Битовая глубина : 8 бит
Тип развёртки : Прогрессивная
Метод сжатия : С потерями
Бит/(Пиксели*Кадры) : 0.167
Размер потока : 210 Мбайт (88%)
Библиотека кодирования : XviD 73

Аудио
Идентификатор : 1
Формат : AC-3
Формат/Информация : Audio Coding 3
Коммерческое название : Dolby Digital
Идентификатор кодека : 2000
Продолжительность : 19 м. 55 с.
Вид битрейта : Постоянный
Битрейт : 192 Кбит/сек
Каналы : 2 канала
Channel layout : L R
Частота : 48,0 КГц
Частота кадров : 31,250 кадров/сек (1536 SPF)
Битовая глубина : 16 бит
Метод сжатия : С потерями
Размер потока : 27,4 Мбайт (11%)
Выравнивание : Разделение по промежуткам
Продолжительность промежутка : 40 мс. (1,00 видеокадр)
Время предзагрузки промежутка : 500 мс
pb.wtf



Скачать Сборник мультфильмов. Клуб весёлых человечков. через торрент http://d.radikal.ru/d19/2001/1e/6fd4b00ab1e9.png Скачать фильм Сборник мультфильмов. Клуб весёлых человечков. через торрент бесплантно в хорошем качестве Описание:Ровно в три пятнадцать... (1959) Музыкальная сказка-шутка с участием Чипполино, Буратино, Петрушки и других героев.Винтик и ... 10 10 3
Торрент: Зарегистрирован [2019-01-25 09:51] · скачан: 20 раз
Статус: √ проверено
Размер: 1.08 GB
Как cкачать? Как скачать Сборник мультфильмов. Клуб весёлых человечков. через торрент | qTorrent

% Раздел Тема Автор DL S | L
Короткометражные мультфильмы [ 1.09 GB ] Сборник мультфильмов. Клуб весёлых человечков. [1959-1965 СССР мультфильм короткометражка DVDRip-AVC SATRip-AVC VHSRip-AVC от AVP Studio] AVP Studio Скачать
12 | 0

28-11-2019 20:33  

Отключить всю рекламу на сайте

    Дорогой пользователь! Огромная просьба, поблагодарите релизера, оцените раздачу и оставьте свои комментарий, если Вы скачали Сборник мультфильмов. Клуб весёлых человечков. через торрент бесплатно! Внесите свою лепту в развитие PiratBit!
    Комментировать посты могут только пользователи прошедшие не сложную регистрацию
    Показать сообщения:    

    Сборник мультфильмов. Клуб весёлых человечков. через торрент
    Скачать бесплатно Сборник мультфильмов. Клуб весёлых человечков.
    Сборник мультфильмов. Клуб весёлых человечков. скачать торрент
    Сборник мультфильмов. Клуб весёлых человечков. смотреть онлайн
    Cкачать фильм Сборник мультфильмов. Клуб весёлых человечков. бесплатно
    Сборник мультфильмов. Клуб весёлых человечков. скачать торрент в хорошем качестве
    Сборник мультфильмов. Клуб весёлых человечков. смотреть онлайн бесплатно в хорошем качестве


    Вы не можете начинать темы
    Вы не можете отвечать на сообщения
    Вы не можете редактировать свои сообщения
    Вы не можете удалять свои сообщения
    Вы не можете голосовать в опросах
    Вы не можете прикреплять файлы к сообщениям
    Вы можете скачивать файлы