Ссылка на приватное зеркало нашего сайта всего за 1$. Внимание количество ограничено!!!

2 сезон

iTunes

1 сезон

1

2 сезон

2 сезон

iTunes

1 сезон

RePack

30

Новинка

ВАЖНО

ИГРА 18+

pack

RePack

MK11
pack

Забери бонус

RePack

jed

!!Акция!!

Alien_Rage

RePack

fifa19

RePack

Assassins Creed: Odyssey

RePack

NEED FOR SPEED™ PAYBACK

4 сезон

9 сезон

Бесстыжие 9 сезон

Все сериалы

все сериалы на PB.wtf

RePack

FAR CRY 5
  

Другие / Сезон: 1 / Серии: 1-16 из 16 (Ольга Доброва-Куликова) [2019, драма, WEBRip-AVC] pb.wtf

Другие через торрент pb.wtf

Размер: 10.28 GB | Добавлен: 1 год 9 мес. назад | Торрент скачан:123 раза
Скачать  

29-01-2019 11:46 Другие Скачать торрент  

ДругиеГод выпуска: 2019
Страна: Россия
Жанр: драма
Продолжительность: ~ 00:50:00 серия
Перевод: Не требуется
Субтитры: отсутствуют

Режиссер: Ольга Доброва-Куликова



В ролях:

Елена Подкаминская, Кирилл Сафонов, Светлана Смирнова-Марцинкевич, Наталья Романычева, Сергей Горобченко, Эльдар Лебедев, Наталья Земцова, Мила Сивацкая, Марта Тимофеева, Анастасия Дятлова, Владимир Щербаков, Александр Синюков, Полина Богомолова, Виктор Конухин, Виктор Запорожский

Описание:

50-е годы. Бездетная пара берет из детского дома маленькую девочку. Скоро новоиспеченные родители обнаруживают, что им достался необычный ребенок, - из тех, кого сегодня называют экстрасенсами. Дочь доставляет родителям массу проблем, к которым те совершенно не готовы. Неожиданно возвращается из сталинских лагерей родная мать девочки, тоже обладающая паранормальными способностями. Она хочет забрать ребенка, но получает отказ. Сотрудник госбезопасности Гринёв обещает Вале вернуть дочь, если она поработает на разведку…

Качество: WEBRip-AVC
Формат: MKV

Видео: MPEG-4 AVC, ~ 1600 Кбит/с, 1024x576, 25 кадр/с
Аудио: AC3, 2 ch, 192 Кбит/с
скриншот  скриншот  скриншот  скриншот  

Общее
Уникальный идентификатор : 218282946976385987472676946682874916762 (0xA437C432566F0573ACACD661F8E36F9A)
Полное имя : E:\Другие.(2018).WEBRip.(AVC).Files-x\01.Другие.(2018).WEBRip.(AVC).by.Серый1779.Files-x.mkv
Формат : Matroska
Версия формата : Version 2
Размер файла : 657 Мбайт
Продолжительность : 51 м. 16 с.
Общий поток : 1793 Кбит/сек
Дата кодирования : UTC 2019-01-21 21:42:58
Программа кодирования : mkvmerge v7.8.0 ('River Man') 32bit built on Apr 3 2015 12:11:22
Библиотека кодирования : libebml v1.3.1 + libmatroska v1.4.2

Видео
Идентификатор : 1
Формат : AVC
Формат/Информация : Advanced Video Codec
Профиль формата : High@L4.1
Настройки формата : CABAC / 9 Ref Frames
Параметр CABAC формата : Да
Параметр RefFrames формата : 9 кадров
Идентификатор кодека : V_MPEG4/ISO/AVC
Продолжительность : 51 м. 16 с.
Битрейт : 1600 Кбит/сек
Ширина : 1024 пикселя
Высота : 576 пикселей
Соотношение сторон : 16:9
Режим частоты кадров : Постоянный
Частота кадров : 25,000 кадров/сек
Цветовое пространство : YUV
Субдискретизация насыщенности : 4:2:0
Битовая глубина : 8 бит
Тип развёртки : Прогрессивная
Бит/(Пиксели*Кадры) : 0.109
Размер потока : 574 Мбайт (87%)
Библиотека кодирования : x264 core 146 r2538 121396c
Настройки программы : cabac=1 / ref=9 / deblock=1:-2:-1 / analyse=0x3:0x133 / me=umh / subme=9 / psy=1 / psy_rd=1.00:0.15 / mixed_ref=1 / me_range=32 / chroma_me=1 / trellis=2 / 8x8dct=1 / cqm=0 / deadzone=21,11 / fast_pskip=0 / chroma_qp_offset=-3 / threads=18 / lookahead_threads=3 / sliced_threads=0 / nr=0 / decimate=1 / interlaced=0 / bluray_compat=0 / constrained_intra=0 / bframes=9 / b_pyramid=2 / b_adapt=2 / b_bias=0 / direct=1 / weightb=1 / open_gop=0 / weightp=2 / keyint=250 / keyint_min=25 / scenecut=40 / intra_refresh=0 / rc=2pass / mbtree=0 / bitrate=1600 / ratetol=1.0 / qcomp=0.60 / qpmin=0 / qpmax=69 / qpstep=4 / cplxblur=20.0 / qblur=0.5 / ip_ratio=1.40 / pb_ratio=1.30 / aq=2:1.00
Default : Да
Forced : Нет
Цветовой диапазон : Limited
Основные цвета : BT.709
Характеристики трансфера : BT.709
Коэффициенты матрицы : BT.709

Аудио
Идентификатор : 2
Формат : AC-3
Формат/Информация : Audio Coding 3
Идентификатор кодека : A_AC3
Продолжительность : 51 м. 16 с.
Вид битрейта : Постоянный
Битрейт : 192 Кбит/сек
Каналы : 2 канала
Расположение каналов : Front: L R
Частота : 44,1 КГц
Частота кадров : 28,711 кадров/сек (1536 SPF)
Битовая глубина : 16 бит
Метод сжатия : С потерями
Размер потока : 70,4 Мбайт (11%)
ServiceKind/String : Complete Main
Default : Да
Forced : Нет

Внимание! Раздача ведётся путём добавления новых серий; при каждом добавлении создаётся новый торрент.
Чтобы начать докачку новой серии, пользователям необходимо сделать следующее:
1. Остановить скачивание;
2. Удалить старый торрент у себя из клиента (старые серии удалять не надо);
3. Скачать новый торрент и запустить его у себя в клиенте вместо старого, при этом указать клиенту путь в старую папку куда и должно происходить скачивание новых серий. Ваш клиент при этом должен произвести хеширование (проверку) старой папки и будет докачивать только те серии, которых у вас ещё нет. Старые серии при этом не удаляются, а продолжают раздаваться! Eсли вы уже удалили старые серии, то предотвратить повторную закачку старых серий можно, отжав галочку в соответствующих местах при запуске нового торрента.
pb.wtf



Скачать Другие через торрент https://i110.fastpic.ru/big/2019/0121/37/66549d54be6e71b63b73be97adda4137.jpg Скачать фильм Другие через торрент бесплантно в хорошем качестве Описание: 50-е годы. Бездетная пара берет из детского дома маленькую девочку. Скоро новоиспеченные родители обнаруживают, что им достался ... 9.7 10 11
Торрент: Зарегистрирован [2019-02-01 00:45] · скачан: 123 раз
Статус: √ проверено
Размер: 10.28 GB
Как cкачать? Как скачать Другие через торрент | qTorrent

% Раздел Тема Автор DL S | L
Наши сериалы [ 40.21 GB ] Давай найдём друг друга / Сезон: 1 / Серии: 1-16 из 16 [2020 HDTV 1080p] bober100 Скачать
3 | 0
Наши сериалы [ 9.38 GB ] Давай найдём друг друга / Сезон: 1 / Серии: 1-16 из 16 [2020 SATRip] bober100 Скачать
1 | 0
Наши сериалы [ 15.83 GB ] Зелёный фургон. Совсем другая история / Сезон: 1 / Серии: 1-16 из 16 [2020 WEB-DL 720p] bober100 Скачать
1 | 1
Наши сериалы [ 37.38 GB ] Зелёный фургон. Совсем другая история / Сезон: 1 / Серии: 1-16 из 16 [2020 HDTV 1080i] bober100 Скачать
2 | 0
Наши сериалы [ 29.37 GB ] Зелёный фургон. Совсем другая история / Сезон: 1 / Серии: 1-16 из 16 [2020 WEB-DL 1080p] bober100 Скачать
1 | 0
Наши сериалы [ 20.97 GB ] Зелёный фургон. Совсем другая история / Сезон: 1 / Серии: 1-16 из 16 [2020 HDTVRip 720p] bober100 Скачать
1 | 0
Наши сериалы [ 12.45 GB ] Зелёный фургон. Совсем другая история / Сезон: 1 / Серии: 1-16 из 16 [2020 HDTVRip-AVC] bober100 Скачать
1 | 0

28-11-2019 20:33  

Отключить всю рекламу на сайте

    Дорогой пользователь! Огромная просьба, поблагодарите релизера, оцените раздачу и оставьте свои комментарий, если Вы скачали Другие через торрент бесплатно! Внесите свою лепту в развитие PiratBit!
    Комментировать посты могут только пользователи прошедшие не сложную регистрацию
    Показать сообщения:    

    Другие через торрент
    Скачать бесплатно Другие
    Другие скачать торрент
    Другие смотреть онлайн
    Cкачать фильм Другие бесплатно
    Другие скачать торрент в хорошем качестве
    Другие смотреть онлайн бесплатно в хорошем качестве


    Вы не можете начинать темы
    Вы не можете отвечать на сообщения
    Вы не можете редактировать свои сообщения
    Вы не можете удалять свои сообщения
    Вы не можете голосовать в опросах
    Вы не можете прикреплять файлы к сообщениям
    Вы можете скачивать файлы