Ссылка на приватное зеркало нашего сайта всего за 1$. Внимание количество ограничено!!!

2 сезон

iTunes

1 сезон

1

2 сезон

2 сезон

iTunes

1 сезон

RePack

30

Ultimate

ВАЖНО

ИГРА 18+

pack

RePack

MK11
pack

Забери бонус

RePack

jed

!!Акция!!

Alien_Rage

RePack

fifa19

RePack

Assassins Creed: Odyssey

RePack

NEED FOR SPEED™ PAYBACK

4 сезон

9 сезон

Бесстыжие 9 сезон

Все сериалы

все сериалы на PB.wtf

RePack

FAR CRY 5
  

История рыцаря / A Knight's Tale (Брайан Хелгеленд) [2001 г, США, боевик, мелодрама, комедия, BDRip 720p, Дубляж, Лицензия] pb.wtf

История рыцаря через торрент pb.wtf

Размер: 6.89 GB | Добавлен: 6 лет 4 мес. назад | Торрент скачан:312 раз
Скачать  

10-07-2014 16:22 История рыцаря Скачать торрент  

История рыцаря / A Knight's Tale Год выпуска: 2001
Страна: США
Жанр: боевик, мелодрама, комедия
Продолжительность: 02:12:09




Перевод: Дубляж, Лицензия + Профессиональный (многоголосый, закадровый)
Субтитры: Russian, English, French




Режиссер: Брайан Хелгеленд









В ролях: Хит Леджер, Руфус Сьюэлл, Шаннин Соссамон, Пол Беттани, Лора Фрейзер, Марк Эдди, Алан Дудик, Беренис Бежо, Скотт Хэнди, Джеймс Пюрфой и др.




Описание: Он не подчинялся ни одному правилу, ибо был создан для того, чтобы их нарушать. После гибели своего господина слуга Уильям решается на отчаянную авантюру. Юноше удается изменить свою родословную и, присвоив себе доспехи и оружие ушедшего хозяина, предстать перед публикой молодым и родовитым рыцарем Ульрихом фон Лихтенштейном.

Теперь в новом качестве ему предстоит доказывать свое благородное происхождение на рыцарских турнирах копьем и мечом. Отвага и решимость сэра Уильяма закалилась в бесчисленных схватках. Но в качестве последнего испытания пылкому сердцу великого самозванца послана страстная любовь, которой под силу выбить из седла самого неустрашимого воина…




Качество: BDRip 720p
Формат: MKV
Видео кодек: AVC
Аудио кодек: AC3 / DTS
Видео: AVC, 1280x544 (2.35), 23.976 fps, 4 220 Kbps
Аудио 1: AC-3, 48.0 KHz, 2 ch, 224 Kbps, CBR (Дубляж)
Аудио 2: DTS, 48.0 KHz, 6 ch, 1 510 Kbps, CBR (Многоголосый)
Аудио 3: DTS, 48.0 KHz, 6 ch, 1 510 Kbps, CBR (English)




скриншот   скриншот   скриншот  

скриншот   скриншот  

скриншот  
General
Unique ID : 225876913421871291810359254103346824524 (0xA9EE4FA63F82B18E92DBE46E5F5EC54C)
Complete name : D:\Мои фильмы и мульты\A.Knights.Tale.2001.720p.BluRay.mkv
Format : Matroska
Format version : Version 2
File size : 6.89 GiB
Duration : 2h 12mn
Overall bit rate mode : Variable
Overall bit rate : 7 469 Kbps
Movie name : The.Dark.Knight.2008.720p.BluRay.DTS.x264-ESiR
Encoded date : UTC 2010-08-06 07:00:23
Writing application : mkvmerge v3.4.0 ('Rapunzel') сборка от May 15 2010 09:38:20
Writing library : libebml v0.8.0 + libmatroska v0.9.0
Attachment : Yes

Video
ID : 1
Format : AVC
Format/Info : Advanced Video Codec
Format profile : High@L4.0
Format settings, CABAC : Yes
Format settings, ReFrames : 3 frames
Codec ID : V_MPEG4/ISO/AVC
Duration : 2h 12mn
Bit rate mode : Variable
Bit rate : 4 220 Kbps
Maximum bit rate : 25.0 Mbps
Width : 1 280 pixels
Height : 544 pixels
Display aspect ratio : 2.35:1
Frame rate mode : Constant
Frame rate : 23.976 fps
Color space : YUV
Chroma subsampling : 4:2:0
Bit depth : 8 bits
Scan type : Progressive
Bits/(Pixel*Frame) : 0.253
Stream size : 3.76 GiB (55%)
Title : A Knights Tale
Writing library : x264 core 65 r1066M 045ae40
Encoding settings : cabac=1 / ref=3 / deblock=1:0:0 / analyse=0x3:0x133 / me=umh / subme=7 / psy_rd=1.0:0.0 / mixed_ref=1 / me_range=16 / chroma_me=1 / trellis=1 / 8x8dct=1 / cqm=0 / deadzone=21,11 / chroma_qp_offset=-2 / threads=3 / nr=0 / decimate=1 / mbaff=0 / bframes=3 / b_pyramid=0 / b_adapt=1 / b_bias=0 / direct=3 / wpredb=1 / keyint=250 / keyint_min=25 / scenecut=40(pre) / rc=2pass / bitrate=4220 / ratetol=1.0 / qcomp=0.60 / qpmin=10 / qpmax=51 / qpstep=4 / cplxblur=20.0 / qblur=0.5 / vbv_maxrate=25000 / vbv_bufsize=25000 / ip_ratio=1.40 / pb_ratio=1.30 / aq=1:1.00
Language : English
Default : Yes
Forced : No

Audio #1
ID : 2
Format : DTS
Format/Info : Digital Theater Systems
Mode : 16
Format settings, Endianness : Big
Codec ID : A_DTS
Duration : 2h 12mn
Bit rate mode : Constant
Bit rate : 1 509 Kbps
Channel(s) : 6 channels
Channel positions : Front: L C R, Side: L R, LFE
Sampling rate : 48.0 KHz
Bit depth : 24 bits
Compression mode : Lossy
Stream size : 1.39 GiB (20%)
Title : RUS DTS 5.1 (mvo)
Language : Russian
Default : Yes
Forced : No

Audio #2
ID : 3
Format : AC-3
Format/Info : Audio Coding 3
Mode extension : CM (complete main)
Format settings, Endianness : Big
Codec ID : A_AC3
Duration : 2h 12mn
Bit rate mode : Constant
Bit rate : 224 Kbps
Channel(s) : 2 channels
Channel positions : Front: L R
Sampling rate : 48.0 KHz
Bit depth : 16 bits
Compression mode : Lossy
Stream size : 212 MiB (3%)
Title : RUS 2.0 (dubb)
Language : Russian
Default : No
Forced : No

Audio #3
ID : 4
Format : DTS
Format/Info : Digital Theater Systems
Mode : 16
Format settings, Endianness : Big
Codec ID : A_DTS
Duration : 2h 12mn
Bit rate mode : Constant
Bit rate : 1 510 Kbps
Channel(s) : 6 channels
Channel positions : Front: L C R, Side: L R, LFE
Sampling rate : 48.0 KHz
Bit depth : 24 bits
Compression mode : Lossy
Stream size : 1.39 GiB (20%)
Title : ENG DTS 5.1
Language : English
Default : No
Forced : No

Text #1
ID : 5
Format : UTF-8
Codec ID : S_TEXT/UTF8
Codec ID/Info : UTF-8 Plain Text
Language : Russian
Default : No
Forced : No

Text #2
ID : 6
Format : UTF-8
Codec ID : S_TEXT/UTF8
Codec ID/Info : UTF-8 Plain Text
Language : English
Default : No
Forced : No

Text #3
ID : 7
Format : UTF-8
Codec ID : S_TEXT/UTF8
Codec ID/Info : UTF-8 Plain Text
Language : French
Default : No
Forced : No
pb.wtf



Скачать История рыцаря через торрент http://i66.fastpic.ru/big/2014/0710/66/a77edc59995492adf7dfec99e4299a66.png Скачать фильм История рыцаря через торрент бесплантно в хорошем качестве Описание: Он не подчинялся ни одному правилу, ибо был создан для того, чтобы их нарушать. После гибели своего господина слуга Уильям ... 10 10 9
Info! Серебряная раздача, засчитывается только 50% скачанного.
Торрент: Зарегистрирован [2014-07-10 16:22] · скачан: 312 раз
Статус: √ проверено
Размер: 6.89 GB
Как cкачать? Как скачать История рыцаря через торрент | qTorrent

28-11-2019 20:33  

Отключить всю рекламу на сайте

10-07-2014 17:39 История рыцаря Скачать торрент  

Замечательный фильм и актер шикарным был. Жаль.pb.wtf



05-02-2019 15:48 История рыцаря Скачать торрент  

Спасибоpb.wtf



    Дорогой пользователь! Огромная просьба, поблагодарите релизера, оцените раздачу и оставьте свои комментарий, если Вы скачали История рыцаря через торрент бесплатно! Внесите свою лепту в развитие PiratBit!
    Комментировать посты могут только пользователи прошедшие не сложную регистрацию
    Показать сообщения:    

    История рыцаря через торрент
    Скачать бесплатно История рыцаря
    История рыцаря скачать торрент
    История рыцаря смотреть онлайн
    Cкачать фильм История рыцаря бесплатно
    История рыцаря скачать торрент в хорошем качестве
    История рыцаря смотреть онлайн бесплатно в хорошем качестве


    Вы не можете начинать темы
    Вы не можете отвечать на сообщения
    Вы не можете редактировать свои сообщения
    Вы не можете удалять свои сообщения
    Вы не можете голосовать в опросах
    Вы не можете прикреплять файлы к сообщениям
    Вы можете скачивать файлы