Ссылка на приватное зеркало нашего сайта всего за 1$. Внимание количество ограничено!!!

2 сезон

iTunes

1 сезон

1

iTunes

iTunes

iTunes

1 сезон

RePack

30

ИГРА 18+

pack

ВАЖНО

!!Акция!!

Alien_RageХит недели

RePack

MK11
pack

Забери бонус

RePack

jed

!!Акция!!

Alien_Rage

RePack

fifa19

RePack

Assassins Creed: Odyssey

RePack

NEED FOR SPEED™ PAYBACK

4 сезон

9 сезон

Бесстыжие 9 сезон

Все сериалы

все сериалы на PB.wtf

RePack

FAR CRY 5
  

Мирай из будущего / Mirai no Mirai (Мамору Хосода) [2018, аниме, мультфильм, фэнтези, драма, приключения, BDRip 1080p] DUB [Line] pb.wtf

Мирай из будущего через торрент pb.wtf

Размер: 8.56 GB | Добавлен: 1 год 8 мес. назад | Торрент скачан:136 раз
Скачать  

05-02-2019 11:09 Мирай из будущего Скачать торрент  

Мирай из будущего / Mirai no Mirai Год выпуска: 2018
Страна: Япония
Жанр: аниме, мультфильм, фэнтези, драма, приключения
Продолжительность: 01:39:02
Перевод: Дублированный | Line
Субтитры: отсутствуют

Режиссер: Мамору Хосода

rating

В ролях:

Ребекка Холл, Джон Чо, Дэниэл Дэ Ким, Криспин Фриман, Стефани Ше, Кодзи Якусё, Эрин Фицджералд, Виктор Брандт, Майкл Синтерниклаас, Виктория Грэйс

Описание:

Мальчик Кун наслаждается беззаботным детством, пока на свет не появляется его маленькая сестра Мирай. Кун очень ревнует родителей к ней, так как младенец притягивает к себе все их внимание. Он часто прячется на заднем дворе дома, где растет магическое семейное дерево. Внезапно Кун оказывается в фантастическом мире, где переплелись настоящее, прошлое и будущее. Один за другим он встречает своих родственников из разных времен: маму он видит маленькой девочкой, прадедушку - сильным юношей, а свою младшую сестру - тинейджером. Благодаря этим невероятным приключениям, Кун открывает для себя новый мир.

Качество: BDRip 1080p
Формат: MKV

Видео: h.264,11.9 Mb/s, 1920x1039
Аудио#1: Русский (AC3, 2 ch, 448 Кбит/с)
скриншот  скриншот  скриншот  

Общее
Уникальный идентификатор : 254524772705729449781383483736835645104 (0xBF7BB02990A56CE8891BEBB9CAEE5EB0)
Полное имя : E:\торреннты\Mirai.2018.D.BDRip.1O8Op.mkv
Формат : Matroska
Версия формата : Version 2
Размер файла : 8,56 Гбайт
Продолжительность : 1 ч. 39 м.
Режим общего битрейта : Переменный
Общий поток : 12,4 Мбит/сек
Дата кодирования : UTC 2019-02-05 07:54:03
Программа кодирования : mkvmerge v8.3.0 ('Over the Horizon') 64bit
Библиотека кодирования : libebml v1.3.1 + libmatroska v1.4.2

Видео
Идентификатор : 1
Формат : AVC
Формат/Информация : Advanced Video Codec
Профиль формата : High@L4.1
Настройки формата : CABAC / 4 Ref Frames
Параметр CABAC формата : Да
Параметр RefFrames формата : 4 кадра
Идентификатор кодека : V_MPEG4/ISO/AVC
Продолжительность : 1 ч. 39 м.
Вид битрейта : Переменный
Битрейт : 11,9 Мбит/сек
Максимальный битрейт : 14,0 Мбит/сек
Ширина : 1920 пикселей
Высота : 1036 пикселей
Соотношение сторон : 1,85:1
Режим частоты кадров : Постоянный
Частота кадров : 23,976 (24000/1001) кадра/сек
Стандарт вещания : Component
Цветовое пространство : YUV
Субдискретизация насыщенности : 4:2:0
Битовая глубина : 8 бит
Тип развёртки : Прогрессивная
Бит/(Пиксели*Кадры) : 0.245
Размер потока : 8,08 Гбайт (94%)
Default : Да
Forced : Нет
Цветовой диапазон : Limited
Основные цвета : BT.709
Характеристики трансфера : BT.709
Коэффициенты матрицы : BT.709

Аудио
Идентификатор : 2
Формат : AC-3
Формат/Информация : Audio Coding 3
Идентификатор кодека : A_AC3
Продолжительность : 1 ч. 39 м.
Вид битрейта : Постоянный
Битрейт : 448 Кбит/сек
Каналы : 2 канала
Расположение каналов : Front: L R
Частота : 48,0 КГц
Частота кадров : 31,250 кадров/сек (1536 SPF)
Битовая глубина : 16 бит
Метод сжатия : С потерями
Размер потока : 317 Мбайт (4%)
ServiceKind/String : Complete Main
Default : Да
Forced : Нет

pb.wtf



Скачать Мирай из будущего через торрент https://c.radikal.ru/c15/1902/fc/a44c32a6f0f7.jpg Скачать фильм Мирай из будущего через торрент бесплантно в хорошем качестве Описание: Мальчик Кун наслаждается беззаботным детством, пока на свет не появляется его маленькая сестра Мирай. Кун очень ревнует родителей ... 9.8 10 5
Торрент: Зарегистрирован [2019-02-05 11:09] · скачан: 136 раз
Статус: # сомнительно
Размер: 8.56 GB
Как cкачать? Как скачать Мирай из будущего через торрент | qTorrent

% Раздел Тема Автор DL S | L
Аниме [HD 720p, 1080p] [ 6.14 GB ] Мирай из будущего / Mirai no Mirai / Mirai of the Future [2018 BDRip 1080p] killermax2013 Скачать
1 | 0
# Фильмы (мультфильмы) cо спонсором показа (Новинки AVI/MKV) [ 4.71 GB ] Мирай из будущего / Mirai no Mirai [2018 аниме мультфильм BDRip 720p] DUB [Line] bober100 Скачать
1 | 0
T Фильмы (мультфильмы) cо спонсором показа (Новинки AVI/MKV) [ 1.37 GB ] Мирай из будущего / Mirai no Mirai [2018 аниме мультфильм HDRip] DUB [Line] bober100 Скачать
1 | 0

28-11-2019 20:33  

Отключить всю рекламу на сайте

07-02-2019 13:23 Мирай из будущего Скачать торрент  

Надеюсь заберет Оскар!pb.wtf



    Дорогой пользователь! Огромная просьба, поблагодарите релизера, оцените раздачу и оставьте свои комментарий, если Вы скачали Мирай из будущего через торрент бесплатно! Внесите свою лепту в развитие PiratBit!
    Комментировать посты могут только пользователи прошедшие не сложную регистрацию
    Показать сообщения:    

    Мирай из будущего через торрент
    Скачать бесплатно Мирай из будущего
    Мирай из будущего скачать торрент
    Мирай из будущего смотреть онлайн
    Cкачать фильм Мирай из будущего бесплатно
    Мирай из будущего скачать торрент в хорошем качестве
    Мирай из будущего смотреть онлайн бесплатно в хорошем качестве


    Вы не можете начинать темы
    Вы не можете отвечать на сообщения
    Вы не можете редактировать свои сообщения
    Вы не можете удалять свои сообщения
    Вы не можете голосовать в опросах
    Вы не можете прикреплять файлы к сообщениям
    Вы можете скачивать файлы