Ссылка на приватное зеркало нашего сайта всего за 1$. Внимание количество ограничено!!!

2 сезон

iTunes

1 сезон

1

iTunes

iTunes

iTunes

1 сезон

RePack

30

ИГРА 18+

pack

ВАЖНО

!!Акция!!

Alien_RageХит недели

RePack

MK11
pack

Забери бонус

RePack

jed

!!Акция!!

Alien_Rage

RePack

fifa19

RePack

Assassins Creed: Odyssey

RePack

NEED FOR SPEED™ PAYBACK

4 сезон

9 сезон

Бесстыжие 9 сезон

Все сериалы

все сериалы на PB.wtf

RePack

FAR CRY 5
  

Звезда родилась / A Star Is Born (Брэдли Купер) [2018 г., Мелодрама, музыка, BDRip 1080p, HEVC (10bit), Дубляж (Лицензия)] pb.wtf

Звезда родилась через торрент pb.wtf

Раздают: 5 [ 0 KB/s ]
Размер: 2.8 GB | Добавлен: 1 год 8 мес. назад | Торрент скачан:430 раз
Скачать  

11-02-2019 08:54 Звезда родилась Скачать торрент  

Звезда родилась / A Star Is Born
Год выпуска: 2018
Страна: США
Жанр: Мелодрама, музыка
Продолжительность: 02:15:45
Перевод: Дубляж (Лицензия)
Субтитры: Русские (форсированные, полные), английские

Режиссер: Брэдли Купер

rating

В ролях: Леди Гага, Брэдли Купер, Сэм Эллиотт, Дэйв Шаппелл, Алек Болдуин, Рафи Гаврон, Энтони Рамос, Эндрю Дайс Клэй, Майкл Харни, Д.Дж. Пирс

Описание: Кантри-музыкант Джексон Мейн, чья карьера быстро катится под откос, однажды знакомится с никому не известной талантливой певицей Элли. Между героями вспыхивает страстный роман. Джек помогает Элли добиться успеха. Но чем стремительнее набирает обороты музыкальная карьера Элли, тем сложнее ему мириться со своей увядающей славой.
Доп. информация: -
H.265/HEVC (High Efficiency Video Coding) - это новый стандарт кодирования видео.
- Стандарт H.265/HEVC является логическим продолжением стандарта
H.264/AVC (Advanced Video Coding), и характеризуется более эффективными
алгоритмами сжатия, а также поддержкой высокого разрешения вплоть до 8K UHD
(8192x4320). Первая версия стандарта H.265 была опубликована в начале 2013 года.
- Рипы в фомате HEVC поддерживается не всеми аппаратными проигрывателями.
- Для корректного воспроизведения может потребоваться обновление ПО.
- Владельцам несовместимого железа просьба не беспокоить,
есть альтернативные релизы.
Качество: BDRip 1080p
Формат: MKV
Видео кодек: H.265
Аудио кодек: AC3
Видео: 1920x800, ~2052 Kbps
Аудио#1: AC3, 6 ch, 448 Kbps - Дублированный
Аудио#2: AC3, 6 ch, 448 Kbps - Английский


Общее
Уникальный идентификатор : 292366529319615374834257153488304759052 (0xDBF3BECF9B3A2BD8FF37FE73E3B0610C)
Полное имя : F:\РАЗДАЧИ\Звезда родилась. 2018. 1080p. 10bit. HEVC.mkv
Формат : Matroska
Версия формата : Version 4 / Version 2
Размер файла : 2,80 Гбайт
Продолжительность : 2 ч. 15 м.
Общий поток : 2950 Кбит/сек
Дата кодирования : UTC 2019-02-11 08:07:53
Программа кодирования : mkvmerge v28.2.0 ('The Awakening') 64-bit
Библиотека кодирования : libebml v1.3.6 + libmatroska v1.4.9
Attachments : poster.jpg

Видео
Идентификатор : 1
Формат : HEVC
Формат/Информация : High Efficiency Video Coding
Профиль формата : Main 10@L4@Main
Идентификатор кодека : V_MPEGH/ISO/HEVC
Продолжительность : 2 ч. 15 м.
Битрейт : 2052 Кбит/сек
Ширина : 1920 пикселей
Высота : 800 пикселей
Соотношение сторон : 2,40:1
Режим частоты кадров : Постоянный
Частота кадров : 23,976 (24000/1001) кадра/сек
Цветовое пространство : YUV
Субдискретизация насыщенности : 4:2:0
Битовая глубина : 10 бит
Бит/(Пиксели*Кадры) : 0.056
Размер потока : 1,95 Гбайт (70%)
Default : Да
Forced : Нет

Аудио #1
Идентификатор : 2
Формат : AC-3
Формат/Информация : Audio Coding 3
Идентификатор кодека : A_AC3
Продолжительность : 2 ч. 15 м.
Вид битрейта : Постоянный
Битрейт : 448 Кбит/сек
Каналы : 6 каналов
Расположение каналов : Front: L C R, Side: L R, LFE
Частота : 48,0 КГц
Частота кадров : 31,250 кадров/сек (1536 SPF)
Битовая глубина : 16 бит
Метод сжатия : С потерями
Размер потока : 435 Мбайт (15%)
Заголовок : Дублированный
Язык : Russian
ServiceKind/String : Complete Main
Default : Да
Forced : Да

Аудио #2
Идентификатор : 3
Формат : AC-3
Формат/Информация : Audio Coding 3
Идентификатор кодека : A_AC3
Продолжительность : 2 ч. 15 м.
Вид битрейта : Постоянный
Битрейт : 448 Кбит/сек
Каналы : 6 каналов
Расположение каналов : Front: L C R, Side: L R, LFE
Частота : 48,0 КГц
Частота кадров : 31,250 кадров/сек (1536 SPF)
Битовая глубина : 16 бит
Метод сжатия : С потерями
Размер потока : 435 Мбайт (15%)
Заголовок : Оригинал
Язык : English
ServiceKind/String : Complete Main
Default : Нет
Forced : Нет

Текст #1
Идентификатор : 4
Формат : UTF-8
Идентификатор кодека : S_TEXT/UTF8
Идентификатор кодека/Информация : UTF-8 Plain Text
Продолжительность : 2 ч. 14 м.
Битрейт : 10 бит/сек
ElementCount : 191
Размер потока : 10,0 Кбайт (0%)
Заголовок : Forced
Язык : Russian
Default : Да
Forced : Да

Текст #2
Идентификатор : 5
Формат : UTF-8
Идентификатор кодека : S_TEXT/UTF8
Идентификатор кодека/Информация : UTF-8 Plain Text
Продолжительность : 2 ч. 14 м.
Битрейт : 95 бит/сек
ElementCount : 1563
Размер потока : 94,6 Кбайт (0%)
Заголовок : Full
Язык : Russian
Default : Нет
Forced : Нет

Текст #3
Идентификатор : 6
Формат : UTF-8
Идентификатор кодека : S_TEXT/UTF8
Идентификатор кодека/Информация : UTF-8 Plain Text
Продолжительность : 2 ч. 14 м.
Битрейт : 70 бит/сек
ElementCount : 2151
Размер потока : 69,3 Кбайт (0%)
Заголовок : Full
Язык : English
Default : Нет
Forced : Нет

pb.wtf



Скачать Звезда родилась через торрент http://img10.lostpic.net/2019/02/03/42301a9bc290cd5d5dca791f4004cb6e.jpg Скачать фильм Звезда родилась через торрент бесплантно в хорошем качестве Описание: Кантри-музыкант Джексон Мейн, чья карьера быстро катится под откос, однажды знакомится с никому не известной талантливой певицей ... 10 10 2
Info! Золотая раздача, скачанное не засчитывается.
Торрент: Зарегистрирован [2019-02-11 08:54] · скачан: 430 раз
Статус: √ проверено
Размер: 2.8 GB
Как cкачать? Как скачать Звезда родилась через торрент | qTorrent

% Раздел Тема Автор DL S | L
Ultra HD (UHD: 2K, 4K, 8K) — видео сверхвысокой чёткости [ 43.66 GB ] Звезда родилась / A Star Is Born [2018 музыка UHD BDRemux 2160p] DUB [] [Dolby Vision TV] sheker187 Скачать
2 | 0
Ultra HD (UHD: 2K, 4K, 8K) — видео сверхвысокой чёткости [ 22.12 GB ] Звезда родилась / A Star Is Born [2018 музыка UHD BDRip 2160p] DUB [] sheker187 Скачать
4 | 0
Ultra HD (UHD: 2K, 4K, 8K) — видео сверхвысокой чёткости [ 49.51 GB ] Звезда родилась / A Star Is Born [2018 музыка UHD BDRemux 2160p] DUB [] sheker187 Скачать
1 | 0
Ultra HD (UHD: 2K, 4K, 8K) — видео сверхвысокой чёткости [ 57.91 GB ] Звезда родилась / A Star Is Born [2018 музыка UHD Blu-ray EUR 2160p] DUB [] [Dolby Vision] sheker187 Скачать
1 | 0
Фильмы [HD 720p, 1080p] (Хороший звук DUB, MVO) [ 4.44 GB ] Звезда родилась / A Star Is Born [2018 музыка BDRip-HEVC 1080p ] DUB [] bober100 Скачать
2 | 0
Фильмы 2018 [DVDrip, WEB-DLRip, HDrip] (DUB, MVO) [ 2.18 GB ] Звезда родилась / A Star Is Born [2018 музыка BDRip] - [] Twi7ter Скачать
8 | 0
Фильмы 2018 [DVDrip, WEB-DLRip, HDrip] (DUB, MVO) [ 1.46 GB ] Звезда родилась / A Star Is Born [2018 музыка BDRip] - [] Twi7ter Скачать
5 | 0

28-11-2019 20:33  

Отключить всю рекламу на сайте

    Дорогой пользователь! Огромная просьба, поблагодарите релизера, оцените раздачу и оставьте свои комментарий, если Вы скачали Звезда родилась через торрент бесплатно! Внесите свою лепту в развитие PiratBit!
    Комментировать посты могут только пользователи прошедшие не сложную регистрацию
    Показать сообщения:    

    Звезда родилась через торрент
    Скачать бесплатно Звезда родилась
    Звезда родилась скачать торрент
    Звезда родилась смотреть онлайн
    Cкачать фильм Звезда родилась бесплатно
    Звезда родилась скачать торрент в хорошем качестве
    Звезда родилась смотреть онлайн бесплатно в хорошем качестве


    Вы не можете начинать темы
    Вы не можете отвечать на сообщения
    Вы не можете редактировать свои сообщения
    Вы не можете удалять свои сообщения
    Вы не можете голосовать в опросах
    Вы не можете прикреплять файлы к сообщениям
    Вы можете скачивать файлы