Мега распродажа FORZA HORIZON 4 ULTIMATE+ВСЕ DLC+ОНЛАЙН всего за 499р. 349 руб. (супер цена). Внимание количество ограничено!!!

iTunes

1+1

iTunes

мы

iTunes

1

1 сезон

Чернобыль

1 сезон

Ральф против интернета

Лицензия

ПШазам

8 сезон

Игра престолов

Лицензия

30
pack

ВАЖНО

!!Акция!!

Alien_RageХит недели

RePack

Resident Evil 21

ИГРА 18+

pack

RePack

Metro:Exodus

!!Акция!!

Alien_Rage

RePack

fifa19

RePack

Assassins Creed: Odyssey

RePack

NEED FOR SPEED™ PAYBACK

3 сезон

9 сезон

Бесстыжие 9 сезон

Все сериалы

все сериалы на PB.wtf

RePack

FAR CRY 5
Ребята, катастрофически не хватает 2730р. для оплаты серверов за ИЮНЬ (всвязи с блокировками трафик упал в 3 раза), 1-2р., выручайте.
  

Битва за Окинаву / Gekido no showashi: Okinawa kessen (Кихачи Окамото) [1971, драма, военный, история, BDRip 720p by msltel] AVO pb.wtf

Битва за Окинаву через торрент pb.wtf

Размер: 5.28 GB | Добавлен: 5 мес. 4 д. назад | Торрент скачан:15 раз
Скачать  

14-02-2019 07:16 Битва за Окинаву Скачать торрент  

Название: Битва за Окинаву
Оригинальное название: Gekido no showashi: Okinawa kessen
Год выпуска: 1971
Страна: Япония
Жанр: драма, военный, история
Продолжительность: 02:29:11
Перевод: авторский

Режиссер: Кихачи Окамото
В ролях: Кэйдзю Кобаяси, Юдзо Каяма, Тэцуро Тамба, Тацуя Накадаи, Маюми Озора, Катсухико Сасаки, Кенджи Сахара, Рё Икэбэ, Икиро Хашимото

О фильме: Последней и наиболее крупной десантной операцией американских вооруженных сил на завершающем этапе Второй мировой войны была операция «Айсберг», направленная на захват острова Окинава. Для японцев Окинава — это был последний рубеж на пути ненавистных американцев на прекрасную родину. Поскольку в живой силе Япония сильно проигрывала, основная надежда Японии возлагалась на смертников камикадзе...



Качество: BDRip 720p
Формат: MKV
Видео: MPEG-4 AVC, 4679 Kбит/с, 1280x534
Аудио 1: русский, AC3, 192 kbps, 2 ch, 48 kHz [авторский, Сергей Кузнецов]
Аудио 2: японский, AC3, 192 kbps, 2 ch, 48 kHz [оригинал]
Главы/чаптеры
Общее
Уникальный идентификатор : 189130806198064457351940303812587287045 (0x8E4944AFB8AAEBC9AD4E7BD007F1F205)
Полное имя : D:\Video\Битва за Окинаву.1971.BDRip 720p by msltel.mkv
Формат : Matroska
Версия формата : Version 4
Размер файла : 5,28 Гбайт
Продолжительность : 2 ч. 29 м.
Общий поток : 5065 Кбит/сек
Название фильма : Rip by msltel
Дата кодирования : UTC 2019-02-14 07:09:04
Программа кодирования : mkvmerge v8.2.0 ('World of Adventure') 64bit
Библиотека кодирования : libebml v1.3.1 + libmatroska v1.4.2

Видео
Идентификатор : 1
Формат : AVC
Формат/Информация : Advanced Video Codec
Профиль формата : High@L4.1
Настройки формата : CABAC / 9 Ref Frames
Параметр CABAC формата : Да
Параметр RefFrames формата : 9 кадров
Идентификатор кодека : V_MPEG4/ISO/AVC
Продолжительность : 2 ч. 29 м.
Битрейт : 4679 Кбит/сек
Ширина : 1280 пикселей
Высота : 534 пикселя
Соотношение сторон : 2,40:1
Режим частоты кадров : Постоянный
Частота кадров : 23,976 (24000/1001) кадра/сек
Цветовое пространство : YUV
Субдискретизация насыщенности : 4:2:0
Битовая глубина : 8 бит
Тип развёртки : Прогрессивная
Бит/(Пиксели*Кадры) : 0.286
Размер потока : 4,88 Гбайт (92%)
Библиотека кодирования : x264 core 157 r2935 545de2f
Настройки программы : cabac=1 / ref=9 / deblock=1:-2:-2 / analyse=0x3:0x113 / me=umh / subme=11 / psy=1 / psy_rd=1.00:0.15 / mixed_ref=1 / me_range=32 / chroma_me=1 / trellis=2 / 8x8dct=1 / cqm=0 / deadzone=21,11 / fast_pskip=0 / chroma_qp_offset=-3 / threads=6 / lookahead_threads=1 / sliced_threads=0 / nr=0 / decimate=1 / interlaced=0 / bluray_compat=0 / constrained_intra=0 / bframes=11 / b_pyramid=2 / b_adapt=2 / b_bias=0 / direct=1 / weightb=1 / open_gop=0 / weightp=2 / keyint=230 / keyint_min=23 / scenecut=40 / intra_refresh=0 / rc_lookahead=40 / rc=crf / mbtree=1 / crf=20.1 / qcomp=0.60 / qpmin=0 / qpmax=69 / qpstep=4 / vbv_maxrate=50000 / vbv_bufsize=62500 / crf_max=0.0 / nal_hrd=none / filler=0 / ip_ratio=1.40 / aq=1:1.00
Язык : Japanese
Default : Да
Forced : Нет

Аудио #1
Идентификатор : 2
Формат : AC-3
Формат/Информация : Audio Coding 3
Коммерческое название : Dolby Digital
Идентификатор кодека : A_AC3
Продолжительность : 2 ч. 29 м.
Вид битрейта : Постоянный
Битрейт : 192 Кбит/сек
Каналы : 2 канала
Channel layout : L R
Частота : 48,0 КГц
Частота кадров : 31,250 кадров/сек (1536 SPF)
Битовая глубина : 16 бит
Метод сжатия : С потерями
Размер потока : 205 Мбайт (4%)
Заголовок : Сергей Кузнецов
Язык : Russian
ServiceKind/String : Complete Main
Default : Да
Forced : Нет

Аудио #2
Идентификатор : 3
Формат : AC-3
Формат/Информация : Audio Coding 3
Коммерческое название : Dolby Digital
Идентификатор кодека : A_AC3
Продолжительность : 2 ч. 29 м.
Вид битрейта : Постоянный
Битрейт : 192 Кбит/сек
Каналы : 2 канала
Channel layout : L R
Частота : 48,0 КГц
Частота кадров : 31,250 кадров/сек (1536 SPF)
Битовая глубина : 16 бит
Метод сжатия : С потерями
Размер потока : 205 Мбайт (4%)
Заголовок : original
Язык : Japanese
ServiceKind/String : Complete Main
Default : Нет
Forced : Нет

Меню
00:00:00.000 : en:Chapter 1
00:04:27.934 : en:Chapter 2
00:09:33.364 : en:Chapter 3
00:13:04.200 : en:Chapter 4
00:16:23.524 : en:Chapter 5
00:28:30.750 : en:Chapter 6
00:35:48.062 : en:Chapter 7
00:38:05.116 : en:Chapter 8
00:45:58.881 : en:Chapter 9
00:59:31.442 : en:Chapter 10
01:04:18.229 : en:Chapter 11
01:07:37.887 : en:Chapter 12
01:16:21.952 : en:Chapter 13
01:18:18.527 : en:Chapter 14
01:22:41.915 : en:Chapter 15
01:33:50.750 : en:Chapter 16
01:35:52.079 : en:Chapter 17
01:45:57.392 : en:Chapter 18
01:52:53.641 : en:Chapter 19
01:59:15.982 : en:Chapter 20
02:10:18.268 : en:Chapter 21
02:20:13.780 : en:Chapter 22
02:22:38.758 : en:Chapter 23
02:26:32.158 : en:Chapter 24
pb.wtf



Скачать Битва за Окинаву через торрент https://a.radikal.ru/a11/1902/73/d8456a2e7c45.jpg Скачать фильм Битва за Окинаву через торрент бесплантно в хорошем качестве О фильме: Последней и наиболее крупной десантной операцией американских вооруженных сил на завершающем этапе Второй мировой войны была ... 5 10 1
Info! Серебряная раздача, засчитывается только 50% скачанного.
Торрент: Зарегистрирован [2019-02-14 07:16] · скачан: 15 раз
Статус: √ проверено
Размер: 5.28 GB
Как cкачать? Как скачать Битва за Окинаву через торрент | qTorrent

% Раздел Тема Автор DL S | L
Азиатские фильмы [ 15.17 GB ] Битва за Окинаву / Gekido no showashi: Okinawa kessen [1971 военный история BDRip 1080p by msltel] AVO msltel Скачать
1 | 0


>> Регистрируемся здесь <<






Отзывы и комментарии о схеме читаем и пишем здесь: ---> Отзывы и комментарии о схеме

Новые благодарочки в телеграм довольных пользователей:
скриншот   скриншот   скриншот   скриншот   скриншот
    Дорогой пользователь! Огромная просьба, поблагодарите релизера, оцените раздачу и оставьте свои комментарий, если Вы скачали Битва за Окинаву через торрент бесплатно! Внесите свою лепту в развитие PiratBit!
    Комментировать посты могут только пользователи прошедшие не сложную регистрацию
    Показать сообщения:    

    Битва за Окинаву через торрент
    Скачать бесплатно Битва за Окинаву
    Битва за Окинаву скачать торрент
    Битва за Окинаву смотреть онлайн
    Cкачать фильм Битва за Окинаву бесплатно
    Битва за Окинаву скачать торрент в хорошем качестве
    Битва за Окинаву смотреть онлайн бесплатно в хорошем качестве


    Вы не можете начинать темы
    Вы не можете отвечать на сообщения
    Вы не можете редактировать свои сообщения
    Вы не можете удалять свои сообщения
    Вы не можете голосовать в опросах
    Вы не можете прикреплять файлы к сообщениям
    Вы можете скачивать файлы