новый адрес
Ссылка на приватное зеркало всего за 1$. Внимание количество ограничено!!!

iTunes

1+1

iTunes

мы

WEB-DL

1

iTunes

Чернобыль

iTunes

Ральф против интернета

Лицензия

ПШазам

Лицензия

Оно 2

Лицензия

30
pack

Вам бонус

ВАЖНО

!!Акция!!

Alien_RageХит недели

RePack

Resident Evil 21

ИГРА 18+

pack

RePack

jed

!!Акция!!

Alien_Rage

RePack

fifa19

RePack

Assassins Creed: Odyssey

RePack

NEED FOR SPEED™ PAYBACK

3 сезон

9 сезон

Бесстыжие 9 сезон

Все сериалы

все сериалы на PB.wtf

RePack

FAR CRY 5
Ребята, катастрофически не хватает 1900р. для оплаты серверов за Октябрь (всвязи с блокировками трафик упал в 3 раза), 1-2р., выручайте.
  

Ход конём (Татьяна Лукашевич) [1962, СССР, комедия, SATRip-AVC от AVP Studio] pb.wtf

Ход конём через торрент pb.wtf

Размер: 1.09 GB | Добавлен: 9 мес. назад | Торрент скачан:17 раз
Скачать  

14-02-2019 08:56 Ход конём Скачать торрент  

Ход конём
Страна: СССР
Производство: Мосфильм

Жанр: комедия
Год выпуска: 1962
Продолжительность: 01:17:37

Перевод: Не требуется
Cубтитры: нет
Оригинальная аудиодорожка: русский

Режиссер: Татьяна Лукашевич

В ролях:
Борис Кузнецов, Савелий Крамаров, Афанасий Кочетков, Михаил Пуговкин, Анатолий Папанов, Татьяна Пельтцер, Виктор Хохряков, Станислав Чекан, Вадим Грачёв, Николай Бармин, Юрий Белов, Виктор Гераскин...
Об актёрах подробней

Описание:
По мотивам повести Михаила Жестева "Приключения маленького тракториста".
Пятнадцатилетний Алёшка Лёвшин, мечтающий стать таким же классным трактористом, как передовик Шугай, из-за возраста не допускается к работам в колхозе, где он намерен прожить всю жизнь. Но у него есть взрослый друг - прицепщик Колька Лопатин, который давно мечтает о беззаботной городской жизни. Лешка идет на безобидную хитрость - и по документам друга поступает в училище механизаторов, а Колька едет в город к Лешкиному дяде...

Исходник: DVB
Качество видео: SATRip-AVC
Формат видео: MKV

Видео: 704->754x566 (4:3), 25,000 кадров/сек, H264 ~ 1814 kbps avg, 0.182 bit/pixel
Аудио: 48 kHz, Dolby Digital AC3 2.0, 192 kbps

Раздача от:
Общее
Полное имя : Hod.konyom.1962.SATRip-AVC_[New-team]_by_AVP_Studio.mkv
Формат : Matroska
Версия формата : Version 2
Размер файла : 1,09 Гбайт
Продолжительность : 1 ч. 17 м.
Общий поток : 2008 Кбит/сек
Дата кодирования : UTC 2019-02-11 13:37:20
Программа кодирования : mkvmerge v6.1.0 ('Old Devil') built on Mar 4 2013 09:10:42
Библиотека кодирования : libebml v1.3.0 + libmatroska v1.4.0

Видео
Идентификатор : 1
Формат : AVC
Формат/Информация : Advanced Video Codec
Профиль формата : High@L4.1
Настройки формата : CABAC / 10 Ref Frames
Параметр CABAC формата : Да
Параметр RefFrames формата : 10 кадров
Идентификатор кодека : V_MPEG4/ISO/AVC
Продолжительность : 1 ч. 17 м.
Битрейт : 1814 Кбит/сек
Ширина : 704 пикселя
Высота : 566 пикселей
Соотношение сторон : 4:3
Режим частоты кадров : Постоянный
Частота кадров : 25,000 кадров/сек
Цветовое пространство : YUV
Субдискретизация насыщенности : 4:2:0
Битовая глубина : 8 бит
Тип развёртки : Прогрессивная
Бит/(Пиксели*Кадры) : 0.182
Размер потока : 986 Мбайт (88%)
Библиотека кодирования : x264 core 157 r2932 303c484
Настройки программы : cabac=1 / ref=10 / deblock=1:-2:-1 / analyse=0x3:0x113 / me=umh / subme=10 / psy=1 / psy_rd=1.00:0.00 / mixed_ref=1 / me_range=32 / chroma_me=1 / trellis=2 / 8x8dct=1 / cqm=0 / deadzone=21,11 / fast_pskip=1 / chroma_qp_offset=-2 / threads=6 / lookahead_threads=1 / sliced_threads=0 / nr=0 / decimate=0 / interlaced=0 / bluray_compat=0 / constrained_intra=0 / bframes=8 / b_pyramid=2 / b_adapt=2 / b_bias=0 / direct=3 / weightb=1 / open_gop=0 / weightp=2 / keyint=250 / keyint_min=25 / scenecut=40 / intra_refresh=0 / rc=2pass / mbtree=0 / bitrate=1814 / ratetol=1.0 / qcomp=0.60 / qpmin=0 / qpmax=69 / qpstep=4 / cplxblur=20.0 / qblur=0.5 / ip_ratio=1.40 / pb_ratio=1.30 / aq=1:1.00
Default : Да
Forced : Нет

Аудио
Идентификатор : 2
Формат : AC-3
Формат/Информация : Audio Coding 3
Коммерческое название : Dolby Digital
Идентификатор кодека : A_AC3
Продолжительность : 1 ч. 17 м.
Вид битрейта : Постоянный
Битрейт : 192 Кбит/сек
Каналы : 2 канала
Channel layout : L R
Частота : 48,0 КГц
Частота кадров : 31,250 кадров/сек (1536 SPF)
Битовая глубина : 16 бит
Метод сжатия : С потерями
Размер потока : 107 Мбайт (10%)
Default : Да
Forced : Нет
pb.wtf



Скачать Ход конём через торрент http://picplus.ru/img/1902/14/dc7f3d5e.png Скачать фильм Ход конём через торрент бесплантно в хорошем качестве Описание:По мотивам повести Михаила Жестева "Приключения маленького тракториста".Пятнадцатилетний Алёшка Лёвшин, мечтающий стать таким же ... 8 10 1
Торрент: Зарегистрирован [2019-02-14 08:56] · скачан: 17 раз
Статус: √ проверено
Размер: 1.09 GB
Как cкачать? Как скачать Ход конём через торрент | qTorrent

% Раздел Тема Автор DL S | L
Кино СССР [ 1.09 GB ] Ход конём [1962 СССР SATRip от AVP Studio] AVP Studio Скачать
1 | 0
Наши Мультфильмы (HD, WEB-DL 720p, 1080p) [ 3.85 GB ] Три богатыря: Ход конем [2014 мультфильм BDRip 720p] Newton5 Скачать
1 | 0
Наши мультфильмы [ 700 MB ] Три богатыря: Ход конем [2014 мультфильм HDRip] Newton5 Скачать
1 | 0
3D Мультфильмы [ 5.4 GB ] Три богатыря: Ход конем [2014 Мультфильм BDrip 1080p] OverUnder / Вертикальная стереопара serega768 Скачать
1 | 0
Наши Мультфильмы (HD, WEB-DL 720p, 1080p) [ 16.56 GB ] Три богатыря: Ход Конем [2014 Мультфильм полнометражный Blu-ray Оригинал] Бумер Скачать
1 | 0
Наши Мультфильмы (HD, WEB-DL 720p, 1080p) [ 7.03 GB ] Три богатыря: Ход конем [2014 мультфильм BDRip 1080p] Original Seedtank Скачать
1 | 0
Наши мультфильмы [ 1.37 GB ] Три богатыря: Ход Конем [2014 Мультфильм полнометражный BDRip] Оригинал Бумер Скачать
2 | 0

28-11-2019 20:33  

Отключить всю рекламу на сайте


    Дорогой пользователь! Огромная просьба, поблагодарите релизера, оцените раздачу и оставьте свои комментарий, если Вы скачали Ход конём через торрент бесплатно! Внесите свою лепту в развитие PiratBit!
    Комментировать посты могут только пользователи прошедшие не сложную регистрацию
    Показать сообщения:    

    Ход конём через торрент
    Скачать бесплатно Ход конём
    Ход конём скачать торрент
    Ход конём смотреть онлайн
    Cкачать фильм Ход конём бесплатно
    Ход конём скачать торрент в хорошем качестве
    Ход конём смотреть онлайн бесплатно в хорошем качестве


    Вы не можете начинать темы
    Вы не можете отвечать на сообщения
    Вы не можете редактировать свои сообщения
    Вы не можете удалять свои сообщения
    Вы не можете голосовать в опросах
    Вы не можете прикреплять файлы к сообщениям
    Вы можете скачивать файлы