Всегда рабочее зеркало без VPN и Proxy просто перед .vidak.icu напиши любое слово или цифру, Пример http://61ly.vidak.icu

MVO

MVO

1 сезон

1

1 сезон

iTunes

1 сезон

13

1 сезон

Deluxe

pack

Рекомендуем

Repack

30

ВАЖНО

RePack

MK11

RePack

jed

RePack

fifa19

RePack

RDR2

RePack

NEED FOR SPEED™ PAYBACK

Кинопоиск HD

6 сезон

 Острые козырьки 6 сезон

Все сериалы

все сериалы на PB.wtf

RePack

FAR CRY 5
  
Magnet ссылка

Сохранить мир – наша обязанность / Dem Frieden verpflichtet (Райнер Бахманн / Reiner Bachmann, Матиас Блохвиц / Mathias Blochwitz) [1981 г., Документальный, VHSRip, Любительский (одноголосый) - Ростислав Ганичев] pb.wtf

Сохранить мир – наша обязанность через торрент pb.wtf

Размер: 699 MB | Добавлен: 3 года 5 мес. назад | Торрент скачан:8 раз
Смотреть онлайн Сохранить мир – наша обязанность | Скачать    Ребята, помогите собрать деньги на оплату серверов!!!

17-02-2019 07:01 Сохранить мир – наша обязанность Скачать торрент  

Сохранить мир – наша обязанность / Dem Frieden verpflichtet
Год выпуска: 1981
Страна: ГДР
Жанр: Документальный
Продолжительность: 00:58:13
Перевод: Любительский (одноголосый) - Ростислав Ганичев
Субтитры: нет

Режиссер: Райнер Бахманн / Reiner Bachmann, Матиас Блохвиц / Mathias Blochwitz

Описание: В 1980 году исполнилось 25 лет со дня основания Организации Варшавского Договора.
В честь юбилея на территории ГДР были организованы грандиозные международные учения «Waffenbrüderschaft-80» (Братство по оружию-80). Выступление руководства ГДР на торжественной церемонии открытия маневров в Потсдаме, основные этапы учений, рассказ об отдельных военнослужащих Венгрии, Румынии, ГДР, Чехословакии, Болгарии, Польши и СССР и завершающий торжественный парад. Сценарий учений: отражение агрессии на Германскую Демократическую Республику – противодействие сухопутным силам и подразделениям морского десанта противника, переход в контрнаступление и высадка десанта на вражеском берегу.
В фильм включены речи генерального секретаря ГДР Эриха Хоннекера, министра обороны генерал-полковника Хайнца Кесслера и члена Национального совета обороны генерала армии Хайнца Хоффманна.

rating


Качество: VHSRip
Формат: AVI
Видео кодек: XviD
Аудио кодек: MP3
Видео: 640x480 (1.33:1), 25 fps, XviD MPEG-4 ~1540 kbps avg, 0.20 bit/pixel
Аудио#1: 48 kHz, MPEG Layer 3, 2 ch, ~128.00 kbps avg

Общее
Полное имя : D:\Dem Frieden verpflichtet_1981_VHSRip.avi
Формат : AVI
Формат/Информация : Audio Video Interleave
Размер файла : 699 Мбайт
Продолжительность : 58 м.
Общий поток : 1678 Кбит/сек
Программа кодирования : VirtualDubMod 1.5.10.3 | www.virtualdub-fr.org || (build 2550/release)
Библиотека кодирования : VirtualDubMod build 2550/release

Видео
Идентификатор : 0
Формат : MPEG-4 Visual
Профиль формата : [email protected]
Параметр BVOP формата : Нет
Параметр QPel формата : Нет
Параметр GMC формата : Без точки перехода
Параметр матрицы формата : Default (H.263)
Идентификатор кодека : XVID
Идентификатор кодека/Подсказка : XviD
Продолжительность : 58 м.
Битрейт : 1540 Кбит/сек
Ширина : 640 пикселей
Высота : 480 пикселей
Соотношение сторон : 4:3
Частота кадров : 25,000 кадров/сек
Цветовое пространство : YUV
Субдискретизация насыщенности : 4:2:0
Битовая глубина : 8 бит
Тип развёртки : Прогрессивная
Метод сжатия : С потерями
Бит/(Пиксели*Кадры) : 0.201
Размер потока : 641 Мбайт (92%)
Библиотека кодирования : Lavc53.33.0

Аудио
Идентификатор : 1
Формат : MPEG Audio
Версия формата : Version 1
Профиль формата : Layer 3
Идентификатор кодека : 55
Идентификатор кодека/Подсказка : MP3
Продолжительность : 58 м.
Вид битрейта : Постоянный
Битрейт : 128 Кбит/сек
Каналы : 2 канала
Частота : 48,0 КГц
Метод сжатия : С потерями
Размер потока : 53,3 Мбайт (8%)
Выравнивание : Соединение по промежуткам
Продолжительность промежутка : 40 мс. (1,00 видеокадр)
Время предзагрузки промежутка : 504 мс.
Библиотека кодирования : LAME3.99r
Настройки программы : -m s -V 4 -q 2 -lowpass 17 -b 128

pb.wtf



Скачать Сохранить мир – наша обязанность через торрент https://i109.fastpic.ru/big/2019/0216/16/91d714d638540795640772b844999716.jpg Скачать, смотреть онлайн Сохранить мир – наша обязанность бесплантно в хорошем качестве Описание: В 1980 году исполнилось 25 лет со дня основания Организации Варшавского Договора.В честь юбилея на территории ГДР были ... 10 10 3
Торрент: Зарегистрирован [2019-02-17 07:01] · скачан: 8 раз
Статус: √ проверено
Размер: 699 MB
Как cкачать? Как скачать Сохранить мир – наша обязанность через торрент | UTorrent

28-11-2019 20:33  

Отключить вcю реклaмy на сайте

    Дорогой пользователь! Огромная просьба, поблагодарите релизера, оцените раздачу и оставьте свои комментарий, если Вы скачали Сохранить мир – наша обязанность через торрент бесплатно!
    Комментировать посты могут только пользователи прошедшие не сложную регистрацию
    Показать сообщения:    

    Сохранить мир – наша обязанность через торрент
    Скачать бесплатно Сохранить мир – наша обязанность
    Сохранить мир – наша обязанность скачать торрент
    Сохранить мир – наша обязанность смотреть онлайн
    Cкачать фильм Сохранить мир – наша обязанность бесплатно
    Сохранить мир – наша обязанность скачать торрент в хорошем качестве
    Сохранить мир – наша обязанность смотреть онлайн бесплатно в хорошем качестве


    Вы не можете начинать темы
    Вы не можете отвечать на сообщения
    Вы не можете редактировать свои сообщения
    Вы не можете удалять свои сообщения
    Вы не можете голосовать в опросах
    Вы не можете прикреплять файлы к сообщениям
    Вы можете скачивать файлы