MEGA SALE -75% Borderlands 3 Super Deluxe всего за 550р. 180 руб. (супер цена). Внимание количество ограничено!!!

iTunes

1+1

iTunes

мы

iTunes

1

iTunes

Чернобыль

iTunes

Ральф против интернета

Лицензия

ПШазам

Лицензия

Игра престолов

Лицензия

30
pack

ВАЖНО

!!Акция!!

Alien_RageХит недели

RePack

Resident Evil 21

ИГРА 18+

pack

RePack

Metro:Exodus

!!Акция!!

Alien_Rage

RePack

fifa19

RePack

Assassins Creed: Odyssey

RePack

NEED FOR SPEED™ PAYBACK

3 сезон

9 сезон

Бесстыжие 9 сезон

Все сериалы

все сериалы на PB.wtf

RePack

FAR CRY 5
Ребята, катастрофически не хватает 1900р. для оплаты серверов за АВГУСТ (всвязи с блокировками трафик упал в 3 раза), 1-2р., выручайте.
  

Клан Сопрано / The Sopranos / Сезон: 1-6 / Серии: 1-86 из 86 (Тимоти Ван Паттен, Джон Паттерсон, Аллен Коултер) [1999-2007, Драма, Криминал, WEB-DL 720p] 2xAVO [Д.Пучков, М.Чадов] pb.wtf

Клан Сопрано через торрент pb.wtf

Раздают: 1 [ 1 MB/s ] Качают: 2 [ 0 KB/s ]
Размер: 180.21 GB | Добавлен: 7 мес. назад | Торрент скачан:18 раз
Скачать  

21-02-2019 08:57 Клан Сопрано Скачать торрент  

Клан Сопрано / The Sopranos Год выпуска: 1999-2007
Страна: США
Жанр: Драма, Криминал
Продолжительность: ~ 00:50:00 серия
Перевод:

Перевод #1: Авторский (одноголосый, закадровый) | Д. Пучков "Гоблин" (1-5 сезоны)
Перевод #2: Авторский (одноголосый, закадровый) | М. Чадов (6 сезон)

Субтитры: отсутствуют

Режиссер: Тимоти Ван Паттен, Джон Паттерсон, Аллен Коултер

rating

В ролях:

Джеймс Гандольфини, Иди Фалко, Джейми-Линн Сиглер, Майкл Империоли, Лоррейн Бракко, Тони Сирико, Роберт Айлер, Стив Ван Зандт, Доминик Кьянезе, Аида Туртурро, Дреа де Маттео, Дэн Гримальди, Стив Ширрипа, Джозеф Р. Ганнасколи, Джон Вентимилья, Шарон Анджела, Федерико Кастеллуччо, Фрэнк Винсент, Винсент Пасторе, Артур Дж. Наскарелла, Макс Каселла, Морин Ван Зандт, Нэнси Марчанд, Ал Сапиенза, Джо Пантолиано, Джерри Эдлер, Донни Кешаварц, Крис Хоган

Описание:

Повседневная жизнь современного Крестного отца: его мысли — стремительны, действия — решительны, а юмор — черен. Мафиозный босс Северного Джерси Тони Сопрано успешно справляется с проблемами «Семьи». Но вот собственная семья немного подкачала: дети от рук отбились, брак — под угрозой, мамаша — пилит. Он надеется на помощь психиатра, но как тому рассказать обо всех своих проблемах, если связан «Омертой» — обетом молчания, нарушать который нельзя под страхом смерти?

Качество: WEB-DL 720p
Формат: MKV

Видео: MPEG-4 AVC, ~ 3994 Кбит/с, 1280x720
Аудио#1: AC3, 2 ch, 192 Кбит/с | Русский - Д. Пучков (1-5 сезоны)
Аудио#2: DTS, 6 ch, 1536 Кбит/с | Русский - М. Чадов (6 сезон)
Аудио#3: AC3, 6 ch, 384 Кбит/с | Английский (2-5 сезоны)
Аудио#4: DTS, 6 ch, 1536 Кбит/с | Английский (6 сезон)
скриншот  скриншот  скриншот  скриншот  скриншот  

скриншот  скриншот  скриншот  скриншот  скриншот  

Общее
Уникальный идентификатор : 194782703908018653200758964359707191685 (0x9289C8C20539E3199AA499D1F7C76985)
Полное имя : D:\The_Sopranos_720p\The_Sopranos_s01\The.Sopranos.S01E01.720p.x264.RUS.Goblin.mkv
Формат : Matroska
Версия формата : Version 1
Размер файла : 2,07 Гбайт
Продолжительность : 59 м. 30 с.
Общий поток : 4979 Кбит/сек
Дата кодирования : UTC 2008-05-31 00:56:43
Программа кодирования : mkvmerge v2.2.0 ('Turn It On Again') built on Mar 4 2008 12:58:26
Библиотека кодирования : libebml v0.7.7 + libmatroska v0.8.1

Видео
Идентификатор : 1
Формат : AVC
Формат/Информация : Advanced Video Codec
Профиль формата : High@L5.1
Параметр CABAC формата : Да
Параметр RefFrames формата : 9 кадров
Идентификатор кодека : V_MPEG4/ISO/AVC
Продолжительность : 59 м. 30 с.
Битрейт : 4783 Кбит/сек
Ширина : 1280 пикселей
Высота : 720 пикселей
Соотношение сторон : 16:9
Режим частоты кадров : Постоянный
Частота кадров : 23,976 (24000/1001) кадра/сек
Цветовое пространство : YUV
Субдискретизация насыщенности : 4:2:0
Битовая глубина : 8 бит
Тип развёртки : Прогрессивная
Бит/(Пиксели*Кадры) : 0.216
Размер потока : 1,95 Гбайт (94%)
Библиотека кодирования : x264 core 54 svn-601
Настройки программы : cabac=1 / ref=6 / deblock=1:-1:0 / analyse=0x3:0x133 / me=hex / subme=7 / brdo=1 / mixed_ref=1 / me_range=16 / chroma_me=1 / trellis=1 / 8x8dct=1 / cqm=0 / deadzone=21,11 / chroma_qp_offset=0 / slices=2 / nr=0 / decimate=1 / mbaff=0 / bframes=3 / b_pyramid=1 / b_adapt=1 / b_bias=0 / direct=1 / wpredb=1 / bime=1 / keyint=250 / keyint_min=25 / scenecut=40 / rc=2pass / bitrate=4783 / ratetol=1.0 / rceq='blurCplx^(1-qComp)' / qcomp=0.60 / qpmin=10 / qpmax=51 / qpstep=4 / cplxblur=20.0 / qblur=0.5 / ip_ratio=1.40 / pb_ratio=1.30
Язык : English
Default : Да
Forced : Нет

Аудио
Идентификатор : 2
Формат : AC-3
Формат/Информация : Audio Coding 3
Расширение режима : CM (complete main)
Параметр Endianness формата : Big
Идентификатор кодека : A_AC3
Продолжительность : 59 м. 30 с.
Вид битрейта : Постоянный
Битрейт : 192 Кбит/сек
Каналы : 2 канала
Расположение каналов : Front: L R
Частота : 48,0 КГц
Частота кадров : 31,250 кадров/сек (1536 spf)
Метод сжатия : С потерями
Размер потока : 81,7 Мбайт (4%)
Язык : Russian
Default : Да
Forced : Нет

pb.wtf



Скачать Клан Сопрано через торрент https://a.radikal.ru/a09/1902/d9/5560e701ab4f.jpg Скачать фильм Клан Сопрано через торрент бесплантно в хорошем качестве Описание: Повседневная жизнь современного Крестного отца: его мысли — стремительны, действия — решительны, а юмор — черен. Мафиозный босс ... 10 10 5
Торрент: Зарегистрирован [2019-02-21 08:57] · скачан: 18 раз
Статус: √ проверено
Размер: 180.21 GB
Как cкачать? Как скачать Клан Сопрано через торрент | qTorrent

% Раздел Тема Автор DL S | L
Клан Сопрано [ 31.68 GB ] Клан Сопрано / The Sopranos / сезон 1-6 [1999-2007 DVDRip-AVC] MVO AARRSSEENN Скачать
2 | 2


>> Регистрируемся здесь <<






Отзывы и комментарии о схеме читаем и пишем здесь: ---> Отзывы и комментарии о схеме

Новые благодарочки в телеграм довольных пользователей:
скриншот   скриншот   скриншот   скриншот   скриншот
    Дорогой пользователь! Огромная просьба, поблагодарите релизера, оцените раздачу и оставьте свои комментарий, если Вы скачали Клан Сопрано через торрент бесплатно! Внесите свою лепту в развитие PiratBit!
    Комментировать посты могут только пользователи прошедшие не сложную регистрацию
    Показать сообщения:    

    Клан Сопрано через торрент
    Скачать бесплатно Клан Сопрано
    Клан Сопрано скачать торрент
    Клан Сопрано смотреть онлайн
    Cкачать фильм Клан Сопрано бесплатно
    Клан Сопрано скачать торрент в хорошем качестве
    Клан Сопрано смотреть онлайн бесплатно в хорошем качестве


    Вы не можете начинать темы
    Вы не можете отвечать на сообщения
    Вы не можете редактировать свои сообщения
    Вы не можете удалять свои сообщения
    Вы не можете голосовать в опросах
    Вы не можете прикреплять файлы к сообщениям
    Вы можете скачивать файлы