Ссылка на приватное зеркало нашего сайта всего за 1$. Внимание количество ограничено!!!

2 сезон

iTunes

1 сезон

1

iTunes

iTunes

iTunes

1 сезон

RePack

30

ИГРА 18+

pack

ВАЖНО

!!Акция!!

Alien_RageХит недели

RePack

MK11
pack

Забери бонус

RePack

jed

!!Акция!!

Alien_Rage

RePack

fifa19

RePack

Assassins Creed: Odyssey

RePack

NEED FOR SPEED™ PAYBACK

4 сезон

9 сезон

Бесстыжие 9 сезон

Все сериалы

все сериалы на PB.wtf

RePack

FAR CRY 5
  

Резня в бикини на болоте / Bikini Swamp Girl Massacre (Эйден Диллард) [2014, Ужасы, WEB-DL 720p] MVO ["Синема УС"] pb.wtf

Резня в бикини на болоте через торрент pb.wtf

Размер: 3.09 GB | Добавлен: 1 год 7 мес. назад | Торрент скачан:45 раз
Скачать  

28-02-2019 08:25 Резня в бикини на болоте Скачать торрент  

Резня в бикини на болоте / Bikini Swamp Girl Massacre Год выпуска: 2014
Страна: США
Жанр: Ужасы
Продолжительность: 01:15:35
Перевод: Любительский (многоголосый) | "Синема УС"
Субтитры: отсутствуют

Режиссер: Эйден Диллард

rating

В ролях:

Тед Вернон, Кэти Ротоло, Николь Соден, Челси Харшман, Дженни Скордамаглиа, Белкис Галвез, Абан Соня, Робин Вернон, Рон Генри, Джон Худ

Описание:

Группа красивых девушек в бикини отправляется в путешествие на болота Эверглейд, штат Флорида. Они еще не знают, что не вернутся из этого путешествия.

Качество: WEB-DL 720p
Формат: MKV

Видео: h.264, 5 291 kb/s, 1280x720
Аудио#1: Русский, (AC3, 2 ch, 384 Кбит/с)
скриншот  скриншот  скриншот  

Общее
Уникальный идентификатор : 238076916820243344355892889114651873848 (0xB31BF241D7391B798342859B804F5238)
Полное имя : E:\торреннты\bikini.swamp.girl.massacre.2014.P.WEB-DL.72Op_KOSHARA.mkv
Формат : Matroska
Версия формата : Version 2
Размер файла : 3,09 Гбайт
Продолжительность : 1 ч. 15 м.
Режим общего битрейта : Переменный
Общий поток : 5851 Кбит/сек
Дата кодирования : UTC 2019-02-27 15:34:07
Программа кодирования : mkvmerge v8.3.0 ('Over the Horizon') 64bit
Библиотека кодирования : libebml v1.3.1 + libmatroska v1.4.2

Видео
Идентификатор : 1
Формат : AVC
Формат/Информация : Advanced Video Codec
Профиль формата : High@L4.1
Настройки формата : CABAC / 4 Ref Frames
Параметр CABAC формата : Да
Параметр RefFrames формата : 4 кадра
Идентификатор кодека : V_MPEG4/ISO/AVC
Продолжительность : 1 ч. 15 м.
Вид битрейта : Переменный
Битрейт : 5291 Кбит/сек
Максимальный битрейт : 6000 Кбит/сек
Ширина : 1280 пикселей
Высота : 720 пикселей
Соотношение сторон : 16:9
Режим частоты кадров : Постоянный
Частота кадров : 23,976 (24000/1001) кадра/сек
Стандарт вещания : Component
Цветовое пространство : YUV
Субдискретизация насыщенности : 4:2:0
Битовая глубина : 8 бит
Тип развёртки : Прогрессивная
Бит/(Пиксели*Кадры) : 0.242
Размер потока : 2,83 Гбайт (91%)
Default : Да
Forced : Нет
Цветовой диапазон : Limited
Основные цвета : BT.709
Характеристики трансфера : BT.709
Коэффициенты матрицы : BT.709

Аудио
Идентификатор : 2
Формат : AC-3
Формат/Информация : Audio Coding 3
Идентификатор кодека : A_AC3
Продолжительность : 1 ч. 15 м.
Вид битрейта : Постоянный
Битрейт : 384 Кбит/сек
Каналы : 2 канала
Расположение каналов : Front: L R
Частота : 48,0 КГц
Частота кадров : 31,250 кадров/сек (1536 SPF)
Битовая глубина : 16 бит
Метод сжатия : С потерями
Размер потока : 208 Мбайт (7%)
ServiceKind/String : Complete Main
Default : Да
Forced : Нет

pb.wtf



Скачать Резня в бикини на болоте через торрент https://d.radikal.ru/d02/1902/5e/4f1117e4d82c.jpg Скачать фильм Резня в бикини на болоте через торрент бесплантно в хорошем качестве Описание: Группа красивых девушек в бикини отправляется в путешествие на болота Эверглейд, штат Флорида. Они еще не знают, что не вернутся ... 10 10 4
Торрент: Зарегистрирован [2019-02-28 08:25] · скачан: 45 раз
Статус: T временная
Размер: 3.09 GB
Как cкачать? Как скачать Резня в бикини на болоте через торрент | qTorrent

% Раздел Тема Автор DL S | L
T Фильмы (мультфильмы) cо спонсором показа (Новинки AVI/MKV) [ 1.37 GB ] Резня в бикини на болоте / Bikini Swamp Girl Massacre [2014 WEB-DLRip] MVO ["Синема УС"] bober100 Скачать
1 | 0

28-11-2019 20:33  

Отключить всю рекламу на сайте

28-02-2019 09:41 Резня в бикини на болоте Скачать торрент  

на 2 скрине самая горячая)))pb.wtf



28-02-2019 13:14 Резня в бикини на болоте Скачать торрент  

Смотрел кто? Тема сисек раскрыта? А то мне показалось, что на постере сосочек чутка вылез из бикиниpb.wtf



    Дорогой пользователь! Огромная просьба, поблагодарите релизера, оцените раздачу и оставьте свои комментарий, если Вы скачали Резня в бикини на болоте через торрент бесплатно! Внесите свою лепту в развитие PiratBit!
    Комментировать посты могут только пользователи прошедшие не сложную регистрацию
    Показать сообщения:    

    Резня в бикини на болоте через торрент
    Скачать бесплатно Резня в бикини на болоте
    Резня в бикини на болоте скачать торрент
    Резня в бикини на болоте смотреть онлайн
    Cкачать фильм Резня в бикини на болоте бесплатно
    Резня в бикини на болоте скачать торрент в хорошем качестве
    Резня в бикини на болоте смотреть онлайн бесплатно в хорошем качестве


    Вы не можете начинать темы
    Вы не можете отвечать на сообщения
    Вы не можете редактировать свои сообщения
    Вы не можете удалять свои сообщения
    Вы не можете голосовать в опросах
    Вы не можете прикреплять файлы к сообщениям
    Вы можете скачивать файлы