Мега распродажа FORZA HORIZON 4 ULTIMATE+ВСЕ DLC+ОНЛАЙН всего за 499р. 349 руб. (супер цена). Внимание количество ограничено!!!

iTunes

1+1

iTunes

мы

iTunes

1

1 сезон

Чернобыль

1 сезон

Ральф против интернета

Лицензия

ПШазам

8 сезон

Игра престолов

Лицензия

30
pack

ВАЖНО

!!Акция!!

Alien_RageХит недели

RePack

Resident Evil 21

ИГРА 18+

pack

RePack

Metro:Exodus

!!Акция!!

Alien_Rage

RePack

fifa19

RePack

Assassins Creed: Odyssey

RePack

NEED FOR SPEED™ PAYBACK

3 сезон

9 сезон

Бесстыжие 9 сезон

Все сериалы

все сериалы на PB.wtf

RePack

FAR CRY 5
Ребята, катастрофически не хватает 2730р. для оплаты серверов за ИЮНЬ (всвязи с блокировками трафик упал в 3 раза), 1-2р., выручайте.
  

Черная магия / Santet (Хелфи Кардит) [2018, Ужасы, WEB-DLRip] MVO [HDRezka Studio] pb.wtf

Черная магия через торрент pb.wtf

Размер: 1.45 GB | Добавлен: 4 мес. 7 д. назад | Торрент скачан:17 раз
Скачать  

11-03-2019 18:03 Черная магия Скачать торрент  

Черная магия / Santet Год выпуска: 2018
Страна: Индонезия
Жанр: Ужасы
Продолжительность: 01:25:39
Перевод: Профессиональный (многоголосый) | HDRezka Studio
Субтитры: отсутствуют

Режиссер: Хелфи Кардит

rating

В ролях:

Келли Брук, Джаз Окампо, Аю Диа Паша, Рэй Сахетапи

Описание:

Ренди вместе со своей супругой Лорой и двумя детьми возвращается в отчий дом. Здесь совсем недавно его отец Дхарма наложил на себя руки, и теперь любящий сын беспокоится о своей матери, а она ведет себя после произошедшего с ее мужем неадекватно. В женщину словно вселился злой дух, она стала одержима черной магией. Она ведет себя, как сумасшедшая, и явно не хочет видеть в своем доме своего сына с невесткой и внуками. Все это приводит Ренди в ужас и смятение.

Качество: WEB-DLRip
Формат: AVI

Видео: 720x304 (2.37:1), 23.976 fps, XviD build 73 ~2230 kbps avg, 0.42 bit/pixel
Аудио: Russian: 48 kHz, AC3 Dolby Digital, 2/0 (L,R) ch, ~192 kbps
скриншот  скриншот  скриншот  скриншот  

Формат : AVI
Формат/Информация : Audio Video Interleave
Размер файла : 1,45 Гбайт
Продолжительность : 1 ч. 25 м.
Общий поток : 2432 Кбит/сек
Программа кодирования : VirtualDubMod 1.5.10.3
Библиотека кодирования : VirtualDubMod build 2550/release

Видео
Идентификатор : 0
Формат : MPEG-4 Visual
Профиль формата : Advanced Simple@L5
Настройки формата : BVOP1 / Custom Matrix
Параметр BVOP формата : 1
Параметр QPel формата : Нет
Параметр GMC формата : Без точки перехода
Параметр матрицы формата : Выборочная
Идентификатор кодека : XVID
Идентификатор кодека/Подсказка : XviD
Продолжительность : 1 ч. 25 м.
Битрейт : 2230 Кбит/сек
Ширина : 720 пикселей
Высота : 304 пикселя
Соотношение сторон : 2,35:1
Частота кадров : 23,976 (24000/1001) кадра/сек
Цветовое пространство : YUV
Субдискретизация насыщенности : 4:2:0
Битовая глубина : 8 бит
Тип развёртки : Прогрессивная
Метод сжатия : С потерями
Бит/(Пиксели*Кадры) : 0.425
Размер потока : 1,33 Гбайт (92%)
Библиотека кодирования : XviD 73

Аудио
Идентификатор : 1
Формат : AC-3
Формат/Информация : Audio Coding 3
Коммерческое название : Dolby Digital
Идентификатор кодека : 2000
Продолжительность : 1 ч. 25 м.
Вид битрейта : Постоянный
Битрейт : 192 Кбит/сек
Каналы : 2 канала
Channel layout : L R
Частота : 48,0 КГц
Частота кадров : 31,250 кадров/сек (1536 SPF)
Битовая глубина : 16 бит
Метод сжатия : С потерями
Размер потока : 118 Мбайт (8%)
Выравнивание : Разделение по промежуткам
Продолжительность промежутка : 42 мс. (1,00 видеокадр)
Время предзагрузки промежутка : 500 мс.

pb.wtf



Скачать Черная магия через торрент https://b.radikal.ru/b37/1902/ab/784dbe02eb14.jpg Скачать фильм Черная магия через торрент бесплантно в хорошем качестве Описание: Ренди вместе со своей супругой Лорой и двумя детьми возвращается в отчий дом. Здесь совсем недавно его отец Дхарма наложил на ... 10 10 3
Торрент: Зарегистрирован [2019-03-11 18:03] · скачан: 17 раз
Статус: √ проверено
Размер: 1.45 GB
Как cкачать? Как скачать Черная магия через торрент | qTorrent

% Раздел Тема Автор DL S | L
Азиатские фильмы [ 3.98 GB ] Черная магия / Santet [2018 WEB-DL 1080p] MVO [HDRezka Studio] bober100 Скачать
1 | 0


>> Регистрируемся здесь <<






Отзывы и комментарии о схеме читаем и пишем здесь: ---> Отзывы и комментарии о схеме

Новые благодарочки в телеграм довольных пользователей:
скриншот   скриншот   скриншот   скриншот   скриншот
    Дорогой пользователь! Огромная просьба, поблагодарите релизера, оцените раздачу и оставьте свои комментарий, если Вы скачали Черная магия через торрент бесплатно! Внесите свою лепту в развитие PiratBit!
    Комментировать посты могут только пользователи прошедшие не сложную регистрацию
    Показать сообщения:    

    Черная магия через торрент
    Скачать бесплатно Черная магия
    Черная магия скачать торрент
    Черная магия смотреть онлайн
    Cкачать фильм Черная магия бесплатно
    Черная магия скачать торрент в хорошем качестве
    Черная магия смотреть онлайн бесплатно в хорошем качестве


    Вы не можете начинать темы
    Вы не можете отвечать на сообщения
    Вы не можете редактировать свои сообщения
    Вы не можете удалять свои сообщения
    Вы не можете голосовать в опросах
    Вы не можете прикреплять файлы к сообщениям
    Вы можете скачивать файлы