Доктор Стрэндж

Лицензия

Добыча

Дубляж

Дом дракона

1 сезон

Тор

Дубляж

В эфире

Дубляж

Там, где раки поют

MVO

Властелин колец

1 сезон

Ultimate

pack

Рекомендуем

30

Пиратка

ВАЖНО

ВАЖНО

Ghostwire

Пиратка

jed

RePack

nioh2

RePack

RDR2

RePack

NEED FOR SPEED™ PAYBACK

RePack

скачать торрент

Кинопоиск HD

Острые козырьки 6 сезон

6 сезон

FAR CRY 6

RePack

скачать торрент

Лицензия

скачать торрент

MVO

1

1 сезон

скачать торрент

1 сезон

скачать торрент

Лицензия

  

Уловка .44 / Catch .44 (Аарон Харви) [2011 г., боевик, драма, комедия, криминал, BDRip 1080p] 2xMVO (R5, BBC Saint-Petersburg)

Уловка .44 через торрент pb.wtf

Размер: 9.52 GB | Добавлен: 3 года 8 мес. назад | Торрент скачан:51 раз
Смотреть онлайн | Скачать   

11-03-2019 21:21 Уловка .44 Скачать торрент  

Уловка .44 / Catch .44 Год выпуска: 2011

Страна: США

Жанр: Боевик, драма, комедия, криминал

Продолжительность: 01:33:51

Перевод: Профессиональный (многоголосый)

Субтитры: Русские, английские

Режиссер: Аарон Харви

rating

В ролях: Форест Уитакер, Брюс Уиллис, Малин Акерман, Никки Рид, Дебора Энн Уолл, Брэд Дуриф, Ши Уигхэм, Майкл Розенбаум, Рейла Афродит, Эрик Браун, Айвори Дортч, Джимми Ли мл, Дэн Сильвер, Джилл Стоуксберри

Описание: Тес, Доун и Кара — три девушки, зарабатывающие на кусок хлеба в Вегасе. Однажды их жизни круто меняют свой плавный ход, превращаясь в сюжет самой настоящей детективной истории. Это происходит после случайного знакомства Тес со странным незнакомцем по имени Мэл, который предлагает девушкам шанс на лучшую жизнь через совершение «маленького правонарушения». Не долго думая, подруги решают согласиться на заманчивую сделку, ещё не зная, что же ждёт их впереди. Но стремление изменить жизнь к лучшему, выбраться из пут «скучной жизни» берёт верх, поэтому подруги оказываются вовлечены в водоворот незабываемых приключений и попадают в самый центр явно не скучного развития событий. Когда девушки понимают, что «соскочить» уже не получится, им приходится идти до конца, ценой неимоверных усилий расхлёбывать кашу, которую они сами же и заварили…
Качество: BDRip 1080p
Формат: MKV
Видео кодек: MPEG-4 AVC
Аудио кодек: AC3, DTS
Видео: MPEG-4 AVC, 11.0 Мбит/с, 1920x800, 23.976 кадр/с
Аудио#1: Русский, AC3, 6 ch, 448 Кбит/с - R5
Аудио#2: Русский, DTS, 6 ch, 1509 Кбит/сек - BBC Saint-Petersburg
Аудио#3: Английский, DTS, 6 ch, 1510 Кбит/сек
Видео
Идентификатор : 1
Формат : AVC
Формат/Информация : Advanced Video Codec
Профиль формата : [email protected]
Настройки формата : CABAC / 5 Ref Frames
Параметр CABAC формата : Да
Параметр RefFrames формата : 5 кадров
Идентификатор кодека : V_MPEG4/ISO/AVC
Продолжительность : 1 ч. 33 м.
Битрейт : 11,0 Мбит/сек
Ширина : 1920 пикселей
Высота : 800 пикселей
Соотношение сторон : 2,40:1
Режим частоты кадров : Постоянный
Частота кадров : 23,976 кадра/сек
Цветовое пространство : YUV
Субдискретизация насыщенности : 4:2:0
Битовая глубина : 8 бит
Тип развёртки : Прогрессивная
Бит/(Пиксели*Кадры) : 0.300
Размер потока : 7,06 Гбайт (74%)
Заголовок : Catch.44.2011.BluRay.1080P.AC3.X264-CHD
Библиотека кодирования : x264 core 115 r2008 4c552d8
Настройки программы : cabac=1 / ref=5 / deblock=1:-3:-3 / analyse=0x3:0x113 / me=umh / subme=10 / psy=1 / psy_rd=1.10:0.15 / mixed_ref=1 / me_range=32 / chroma_me=1 / trellis=2 / 8x8dct=1 / cqm=2 / deadzone=21,11 / fast_pskip=0 / chroma_qp_offset=-2 / threads=12 / sliced_threads=0 / nr=0 / decimate=1 / interlaced=0 / bluray_compat=0 / constrained_intra=0 / bframes=6 / b_pyramid=2 / b_adapt=2 / b_bias=0 / direct=3 / weightb=1 / open_gop=0 / weightp=2 / keyint=250 / keyint_min=23 / scenecut=40 / intra_refresh=0 / rc_lookahead=60 / rc=2pass / mbtree=1 / bitrate=11049 / ratetol=1.0 / qcomp=0.60 / qpmin=1 / qpmax=63 / qpstep=4 / cplxblur=20.0 / qblur=0.5 / vbv_maxrate=40000 / vbv_bufsize=30000 / nal_hrd=none / ip_ratio=1.40 / aq=1:0.80
Язык : English
Default : Нет
Forced : Нет

Аудио #1
Идентификатор : 2
Формат : AC-3
Формат/Информация : Audio Coding 3
Коммерческое название : Dolby Digital
Идентификатор кодека : A_AC3
Продолжительность : 1 ч. 33 м.
Вид битрейта : Постоянный
Битрейт : 448 Кбит/сек
Каналы : 6 каналов
Channel layout : L R C LFE Ls Rs
Частота : 48,0 КГц
Частота кадров : 31,250 кадров/сек (1536 SPF)
Битовая глубина : 16 бит
Метод сжатия : С потерями
Задержка видео : 11 с. 808 мс.
Размер потока : 301 Мбайт (3%)
Язык : Russian
ServiceKind/String : Complete Main
Default : Да
Forced : Да

Аудио #2
Идентификатор : 3
Формат : DTS
Формат/Информация : Digital Theater Systems
Идентификатор кодека : A_DTS
Продолжительность : 1 ч. 33 м.
Вид битрейта : Постоянный
Битрейт : 1509 Кбит/сек
Каналы : 6 каналов
Channel layout : C L R Ls Rs LFE
Частота : 48,0 КГц
Частота кадров : 93,750 кадра/сек (512 SPF)
Битовая глубина : 24 бит
Метод сжатия : С потерями
Размер потока : 1013 Мбайт (10%)
Заголовок : MVO-BBC Saint-Petersburg
Язык : Russian
Default : Нет
Forced : Нет

Аудио #3
Идентификатор : 4
Формат : DTS
Формат/Информация : Digital Theater Systems
Идентификатор кодека : A_DTS
Продолжительность : 1 ч. 33 м.
Вид битрейта : Постоянный
Битрейт : 1510 Кбит/сек
Каналы : 6 каналов
Channel layout : C L R Ls Rs LFE
Частота : 48,0 КГц
Частота кадров : 93,750 кадра/сек (512 SPF)
Битовая глубина : 24 бит
Метод сжатия : С потерями
Размер потока : 1014 Мбайт (10%)
Заголовок : Original
Язык : English
Default : Нет
Forced : Нет

Текст #1
Идентификатор : 5
Формат : UTF-8
Идентификатор кодека : S_TEXT/UTF8
Идентификатор кодека/Информация : UTF-8 Plain Text
Заголовок : Sub
Язык : Russian
Default : Нет
Forced : Нет

Текст #2
Идентификатор : 6
Формат : UTF-8
Идентификатор кодека : S_TEXT/UTF8
Идентификатор кодека/Информация : UTF-8 Plain Text
Заголовок : Sub
Язык : English
Default : Нет
Forced : Нет

Меню
00:00:00.000 : en:00:00:00
00:11:19.804 : en:00:11:19
00:17:31.967 : en:00:17:31
00:23:14.226 : en:00:23:14
00:28:02.347 : en:00:28:02
00:34:23.561 : en:00:34:23
00:39:55.184 : en:00:39:55
00:45:59.548 : en:00:45:59
00:54:26.346 : en:00:54:26
01:03:27.053 : en:01:03:27
01:14:04.648 : en:01:14:04
01:25:22.033 : en:01:25:22

скриншот   скриншот   скриншот   скриншот   скриншот  




Скачать Уловка .44 через торрент https://i5-imageban-ru.translate.goog/out/2019/03/12/460b3133bfa9796d49226255f8af8879.gif Скачать, смотреть онлайн Уловка .44 бесплантно в хорошем качестве Описание: Тес, Доун и Кара — три девушки, зарабатывающие на кусок хлеба в Вегасе. Однажды их жизни круто меняют свой плавный ход, ... 7 10 3
Торрент: Зарегистрирован [2019-03-11 21:21] · скачан: 51 раз
Статус: √ проверено
Размер: 9.52 GB
Как cкачать? Как скачать Уловка .44 через торрент | UTorrent

% Раздел Тема Автор DL S | L
Фильмы 2011 [ 1.16 GB ] Уловка .44 / Catch .44 | | BDRip-AVC Anonymous Скачать
1 | 0
Фильмы (DVD фильмы) [ 5.52 GB ] Уловка .44 / Catch .44 | | Уловка .44 / Catch .44 (Аарон Харви / Aaron Harvey voovaz Скачать
1 | 0
Фильмы 2011 [ 4.66 GB ] Уловка .44 / Catch .44 | | 720p makarevich Скачать
1 | 0

28-11-2019 20:33  


Отключить вcю реклaмy на сайте, в т.ч. и в плеере онлайн просмотра!

    Дорогой пользователь! Огромная просьба, поблагодарите релизера, оцените раздачу и оставьте свои комментарий, если Вы скачали Уловка .44 через торрент бесплатно!!
    Комментировать посты могут только пользователи прошедшие не сложную регистрацию
    Показать сообщения:    


    Уловка .44 через торрент
    Скачать бесплатно Уловка .44
    Уловка .44 скачать торрент
    Уловка .44 смотреть онлайн
    Cкачать фильм Уловка .44 бесплатно
    Уловка .44 скачать торрент в хорошем качестве
    Уловка .44 смотреть онлайн бесплатно в хорошем качестве
    Вы не можете начинать темы
    Вы не можете отвечать на сообщения
    Вы не можете редактировать свои сообщения
    Вы не можете удалять свои сообщения
    Вы не можете голосовать в опросах
    Вы не можете прикреплять файлы к сообщениям
    Вы можете скачивать файлы
    Уловка .44 / Catch .44 [2011 г., боевик, драма, комедия, криминал, BDRip 1080p] 2xMVO смотреть онлайн, скачать торрент picoco.icu