Доктор Стрэндж

Лицензия

Добыча

Дубляж

Дом дракона

1 сезон

Тор

Дубляж

В эфире

Дубляж

Там, где раки поют

MVO

Властелин колец

1 сезон

GLOBAL

pack

Рекомендуем

30

Пиратка

ВАЖНО

ВАЖНО

Ghostwire

Пиратка

jed

RePack

nioh2

RePack

RDR2

RePack

NEED FOR SPEED™ PAYBACK

RePack

скачать торрент

Кинопоиск HD

Острые козырьки 6 сезон

6 сезон

FAR CRY 6

RePack

скачать торрент

Лицензия

скачать торрент

MVO

1

1 сезон

скачать торрент

1 сезон

скачать торрент

Лицензия

  

Прометей / Prometheus (Ридли Скотт) [2012, фантастика, детектив, приключения, HDTVRip 1080p] [Open Matte] Дубляж + MVO + 4xAVO

Прометей через торрент pb.wtf

Раздают: 1 [ 0 KB/s ]
Размер: 15.43 GB | Добавлен: 3 года 8 мес. назад | Торрент скачан:67 раз
Смотреть онлайн | Скачать   

16-03-2019 06:03 Прометей Скачать торрент  

Прометей / Prometheus«Они искали колыбель человечества, но нашли его погибель»
Год выпуска: 2012
Страна: США, Великобритания
Жанр: фантастика, детектив, приключения
Продолжительность: 02:03:50
Перевод: Дублированный, профессиональный многоголосый, Одноголосый закадровый (Авторский)
Субтитры: русские (forced, full), английские
Режиссер: Ридли Скотт
В ролях:

Нуми Рапас (Elizabeth Shaw), Майкл Фассбендер (David), Шарлиз Терон (Meredith Vickers), Идрис Эльба (Janek), Гай Пирс (Peter Weyland), Логан Маршалл-Грин (Charlie Holloway), Шон Харрис (Fifield), Рейф Сполл (Millburn), Иман Эллиотт (Chance), Бенедикт Вонг (Ravel), Кейт Дики (Ford), Брануэлл Донахи (Mercenary 1)
Описание:
В поисках сакрального знания группа ученых отправляется в самые темные и неизведанные чертоги вселенной. Именно там, в отдаленных мирах, находясь на пределе своих умственных и физических возможностей, им предстоит вступить в безжалостную схватку за будущее всего человечества.
Рейтинг:

MPAA: R - Лицам до 17 лет обязательно присутствие взрослого
Качество: HDTVRip 1080p | Open Matte
Формат: MKV
Видео: 1920x1080, 14000 kbps, 23,976 fps
Аудио #1: AC-3, 6 ch, 448 kbps (Rus) - Дубляж CPIG BD CEE
Аудио #2: AC-3, 2 ch, 192 kbps (Rus) - MVO Первый канал
Аудио #3: AC-3, 6 ch, 640 kbps (Rus) - AVO Сербин Юрий Владимирович
Аудио #4: AC-3, 6 ch, 640 kbps (Rus) - AVO Гаврилов Андрей Юрьевич
Аудио #5: AC-3, 6 ch, 640 kbps (Rus) - AVO Горчаков Василий Овидиевич
Аудио #6: AC-3, 6 ch, 640 kbps (Rus) - AVO Матвеев Алексей (Doctor Joker)
Аудио #7: AC-3, 6 ch, 640 kbps (Eng)
Навигация по главам: есть

x264 [info]: frame I:1096 Avg QP:22.19 size:232804
x264 [info]: frame P:35386 Avg QP:24.21 size:116705
x264 [info]: frame B:141672 Avg QP:26.27 size: 60814
x264 [info]: consecutive B-frames: 1.7% 2.4% 8.1% 12.7% 15.4% 24.9% 15.3% 14.7% 3.6% 0.9% 0.3% 0.1% 0.1%

Общее
Уникальный идентификатор : 207600542052877489923102700846715400707 (0x9C2E68F87387C896AD8D505630C67203)
Полное имя : Чужой 5 Прометей (Prometheus) 2012 HDTVRip 1080p.mkv
Формат : Matroska
Версия формата : Version 2
Размер файла : 15,4 Гбайт
Продолжительность : 2 ч. 3 м.
Общий поток : 17,8 Мбит/сек
Дата кодирования : UTC 2018-06-01 12:14:11
Программа кодирования : mkvmerge v4.0.0 ('The Stars were mine') сборка от Jun 6 2010 16:18:42
Библиотека кодирования : libebml v1.0.0 + libmatroska v1.0.0

Видео
Идентификатор : 1
Формат : AVC
Формат/Информация : Advanced Video Codec
Профиль формата : [email protected]
Параметр CABAC формата : Да
Параметр ReFrames формата : 4 кадра
Идентификатор кодека : V_MPEG4/ISO/AVC
Продолжительность : 2 ч. 3 м.
Битрейт : 14,0 Мбит/сек
Ширина : 1920 пикселей
Высота : 1080 пикселей
Соотношение сторон : 16:9
Режим частоты кадров : Постоянный
Частота кадров : 23,976 (24000/1001) кадра/сек
Цветовое пространство : YUV
Субдискретизация насыщенности : 4:2:0
Битовая глубина : 8 бит
Тип развёртки : Прогрессивная
Бит/(Пиксели*Кадры) : 0.282
Размер потока : 11,8 Гбайт (76%)
Библиотека кодирования : x264 core 146 r2538 121396c
Настройки программы : cabac=1 / ref=4 / deblock=1:-3:-3 / analyse=0x3:0x133 / me=umh / subme=11 / psy=1 / psy_rd=1.00:0.00 / mixed_ref=1 / me_range=32 / chroma_me=1 / trellis=2 / 8x8dct=1 / cqm=0 / deadzone=21,11 / fast_pskip=0 / chroma_qp_offset=-2 / threads=12 / lookahead_threads=2 / sliced_threads=0 / nr=0 / decimate=0 / interlaced=0 / bluray_compat=0 / constrained_intra=0 / bframes=12 / b_pyramid=2 / b_adapt=2 / b_bias=0 / direct=3 / weightb=1 / open_gop=0 / weightp=2 / keyint=240 / keyint_min=23 / scenecut=40 / intra_refresh=0 / rc=2pass / mbtree=0 / bitrate=14000 / ratetol=1.0 / qcomp=0.60 / qpmin=0 / qpmax=69 / qpstep=4 / cplxblur=20.0 / qblur=0.5 / ip_ratio=1.40 / pb_ratio=1.30 / aq=1:0.80
Язык : English
Default : Нет
Forced : Нет

Аудио #1
Идентификатор : 2
Формат : AC-3
Формат/Информация : Audio Coding 3
Расширение режима : CM (complete main)
Параметр Endianness формата : Big
Идентификатор кодека : A_AC3
Продолжительность : 2 ч. 3 м.
Вид битрейта : Постоянный
Битрейт : 448 Кбит/сек
Каналы : 6 каналов
Расположение каналов : Front: L C R, Side: L R, LFE
Частота : 48,0 КГц
Частота кадров : 31,250 кадров/сек (1536 spf)
Метод сжатия : С потерями
Размер потока : 397 Мбайт (3%)
Заголовок : Дубляж CPIG BD CEE
Язык : Russian
Default : Нет
Forced : Нет

Аудио #2
Идентификатор : 3
Формат : AC-3
Формат/Информация : Audio Coding 3
Расширение режима : CM (complete main)
Параметр Endianness формата : Big
Идентификатор кодека : A_AC3
Продолжительность : 2 ч. 3 м.
Вид битрейта : Постоянный
Битрейт : 192 Кбит/сек
Каналы : 2 канала
Расположение каналов : Front: L R
Частота : 48,0 КГц
Частота кадров : 31,250 кадров/сек (1536 spf)
Метод сжатия : С потерями
Размер потока : 170 Мбайт (1%)
Заголовок : MVO Первый канал
Язык : Russian
Default : Нет
Forced : Нет

Аудио #3
Идентификатор : 4
Формат : AC-3
Формат/Информация : Audio Coding 3
Расширение режима : CM (complete main)
Параметр Endianness формата : Big
Идентификатор кодека : A_AC3
Продолжительность : 2 ч. 3 м.
Вид битрейта : Постоянный
Битрейт : 640 Кбит/сек
Каналы : 6 каналов
Расположение каналов : Front: L C R, Side: L R, LFE
Частота : 48,0 КГц
Частота кадров : 31,250 кадров/сек (1536 spf)
Метод сжатия : С потерями
Размер потока : 567 Мбайт (4%)
Заголовок : AVO Сербин Юрий Владимирович
Язык : Russian
Default : Нет
Forced : Нет

Аудио #4
Идентификатор : 5
Формат : AC-3
Формат/Информация : Audio Coding 3
Расширение режима : CM (complete main)
Параметр Endianness формата : Big
Идентификатор кодека : A_AC3
Продолжительность : 2 ч. 3 м.
Вид битрейта : Постоянный
Битрейт : 640 Кбит/сек
Каналы : 6 каналов
Расположение каналов : Front: L C R, Side: L R, LFE
Частота : 48,0 КГц
Частота кадров : 31,250 кадров/сек (1536 spf)
Метод сжатия : С потерями
Размер потока : 567 Мбайт (4%)
Заголовок : AVO Гаврилов Андрей Юрьевич
Язык : Russian
Default : Нет
Forced : Нет

Аудио #5
Идентификатор : 6
Формат : AC-3
Формат/Информация : Audio Coding 3
Расширение режима : CM (complete main)
Параметр Endianness формата : Big
Идентификатор кодека : A_AC3
Продолжительность : 2 ч. 3 м.
Вид битрейта : Постоянный
Битрейт : 640 Кбит/сек
Каналы : 6 каналов
Расположение каналов : Front: L C R, Side: L R, LFE
Частота : 48,0 КГц
Частота кадров : 31,250 кадров/сек (1536 spf)
Метод сжатия : С потерями
Размер потока : 567 Мбайт (4%)
Заголовок : AVO Горчаков Василий Овидиевич
Язык : Russian
Default : Нет
Forced : Нет

Аудио #6
Идентификатор : 7
Формат : AC-3
Формат/Информация : Audio Coding 3
Расширение режима : CM (complete main)
Параметр Endianness формата : Big
Идентификатор кодека : A_AC3
Продолжительность : 2 ч. 3 м.
Вид битрейта : Постоянный
Битрейт : 640 Кбит/сек
Каналы : 6 каналов
Расположение каналов : Front: L C R, Side: L R, LFE
Частота : 48,0 КГц
Частота кадров : 31,250 кадров/сек (1536 spf)
Метод сжатия : С потерями
Размер потока : 567 Мбайт (4%)
Заголовок : AVO Матвеев Алексей (Doctor Joker)
Язык : Russian
Default : Нет
Forced : Нет

Аудио #7
Идентификатор : 8
Формат : AC-3
Формат/Информация : Audio Coding 3
Расширение режима : CM (complete main)
Параметр Endianness формата : Big
Идентификатор кодека : A_AC3
Продолжительность : 2 ч. 3 м.
Вид битрейта : Постоянный
Битрейт : 640 Кбит/сек
Каналы : 6 каналов
Расположение каналов : Front: L C R, Side: L R, LFE
Частота : 48,0 КГц
Частота кадров : 31,250 кадров/сек (1536 spf)
Метод сжатия : С потерями
Размер потока : 567 Мбайт (4%)
Язык : English
Default : Нет
Forced : Нет

Текст #1
Идентификатор : 9
Формат : UTF-8
Идентификатор кодека : S_TEXT/UTF8
Идентификатор кодека/Информация : UTF-8 Plain Text
Заголовок : Forced
Язык : Russian
Default : Нет
Forced : Нет

Текст #2
Идентификатор : 10
Формат : UTF-8
Идентификатор кодека : S_TEXT/UTF8
Идентификатор кодека/Информация : UTF-8 Plain Text
Язык : Russian
Default : Нет
Forced : Нет

Текст #3
Идентификатор : 11
Формат : UTF-8
Идентификатор кодека : S_TEXT/UTF8
Идентификатор кодека/Информация : UTF-8 Plain Text
Язык : English
Default : Нет
Forced : Нет

Меню
00:00:00.000 : :Chapter 01
00:05:13.145 : :Chapter 02
00:07:44.881 : :Chapter 03
00:11:31.523 : :Chapter 04
00:15:09.782 : :Chapter 05
00:20:04.912 : :Chapter 06
00:22:32.809 : :Chapter 07
00:27:43.119 : :Chapter 08
00:31:57.832 : :Chapter 09
00:34:10.840 : :Chapter 10
00:37:53.228 : :Chapter 11
00:40:45.359 : :Chapter 12
00:45:49.329 : :Chapter 13
00:48:47.925 : :Chapter 14
00:50:23.061 : :Chapter 15
00:53:56.399 : :Chapter 16
00:56:32.222 : :Chapter 17
00:59:31.609 : :Chapter 18
01:01:29.185 : :Chapter 19
01:04:17.562 : :Chapter 20
01:06:01.457 : :Chapter 21
01:08:57.883 : :Chapter 22
01:11:13.519 : :Chapter 23
01:15:10.631 : :Chapter 24
01:17:06.037 : :Chapter 25
01:25:02.305 : :Chapter 26
01:27:09.349 : :Chapter 27
01:30:10.363 : :Chapter 28
01:32:43.724 : :Chapter 29
01:35:23.134 : :Chapter 30
01:37:46.860 : :Chapter 31
01:40:46.372 : :Chapter 32
01:43:46.220 : :Chapter 33
01:48:28.793 : :Chapter 34
01:52:08.095 : :Chapter 35
01:58:06.287 : :Chapter 36
02:03:46.168 : :Chapter 37



Скачать Прометей через торрент https://b.radikal.ru/b07/1903/37/0c071c0ecdce.png Скачать, смотреть онлайн Прометей бесплантно в хорошем качестве Описание: В поисках сакрального знания группа ученых отправляется в самые темные и неизведанные чертоги вселенной. Именно там, в отдаленных ... 10 10 5
Торрент: Зарегистрирован [2019-03-16 06:03] · скачан: 67 раз
Статус: √ проверено
Размер: 15.43 GB
Как cкачать? Как скачать Прометей через торрент | UTorrent

28-11-2019 20:33  


Отключить вcю реклaмy на сайте, в т.ч. и в плеере онлайн просмотра!

    Дорогой пользователь! Огромная просьба, поблагодарите релизера, оцените раздачу и оставьте свои комментарий, если Вы скачали Прометей через торрент бесплатно!!
    Комментировать посты могут только пользователи прошедшие не сложную регистрацию
    Показать сообщения:    


    Прометей через торрент
    Скачать бесплатно Прометей
    Прометей скачать торрент
    Прометей смотреть онлайн
    Cкачать фильм Прометей бесплатно
    Прометей скачать торрент в хорошем качестве
    Прометей смотреть онлайн бесплатно в хорошем качестве
    Вы не можете начинать темы
    Вы не можете отвечать на сообщения
    Вы не можете редактировать свои сообщения
    Вы не можете удалять свои сообщения
    Вы не можете голосовать в опросах
    Вы не можете прикреплять файлы к сообщениям
    Вы можете скачивать файлы
    Прометей / Prometheus [2012, фантастика, детектив, приключения, HDTVRip 1080p] [Open Matte] Дубляж + MVO + 4xAVO смотреть онлайн, скачать торрент picoco.icu