Всегда рабочее зеркало без VPN и Proxy просто перед .vidak.icu напиши любое слово или цифру, Пример http://ndq8.vidak.icu

MVO

MVO

1 сезон

1

1 сезон

iTunes

1 сезон

13

1 сезон

Deluxe

pack

Рекомендуем

Repack

30

ВАЖНО

RePack

MK11

RePack

jed

RePack

fifa19

RePack

RDR2

RePack

NEED FOR SPEED™ PAYBACK

Кинопоиск HD

6 сезон

 Острые козырьки 6 сезон

Все сериалы

все сериалы на PB.wtf

RePack

FAR CRY 5
  
Magnet ссылка

Autodesk 3ds Max 2014 (Преподаватель) [2013 г., Обучающее видео, PCRec] pb.wtf

Autodesk 3ds Max 2014 через торрент pb.wtf

Размер: 2.65 GB | Добавлен: 8 лет 7 мес. назад | Торрент скачан:749 раз
Смотреть онлайн Autodesk 3ds Max 2014 | Скачать    Ребята, помогите собрать деньги на оплату серверов!!!

13-12-2013 20:45 Autodesk 3ds Max 2014 Скачать торрент  

Autodesk 3ds Max 2014

Год выпуска: 2013
Страна: Россия
Жанр: Обучающее видео
Продолжительность: 06:34:00
Перевод: Не требуется

Режиссер: Преподаватель

Описание: Запись уроков по Autodesk 3ds Max.
Уроки преподавались в одной из специализированных академий в формате: Преподаватель - Ученик.
Индивидуальные занятия. В уроках били пройдены все азы обучения в работе с программой с самого начала до создания первого проекта.
Общее
Полное имя : E:Autodesk 3ds Max 2014 уроки (2013)Autodesk 3ds Max 2014.Запись обучения.
Формат : MPEG-4
Профиль формата : Base Media / Version 2
Идентификатор кодека : mp42
Размер файла : 322 Мбайт
Продолжительность : 46 м.
Режим общего битрейта : Переменный
Общий поток : 972 Кбит/сек
Дата кодирования : UTC 2013-12-08 20:04:46
Дата пометки : UTC 2013-12-08 20:04:46
gsst : 0
gstd : 2773623
gssd : B4A7DDAC3HH1386905988126768
gshh : r3---sn-4g57kuek.googlevideo.com

Видео
Идентификатор : 1
Формат : AVC
Формат/Информация : Advanced Video Codec
Профиль формата : [email protected]
Параметр CABAC формата : Да
Параметр ReFrames формата : 1 кадр
Идентификатор кодека : avc1
Идентификатор кодека/Информация : Advanced Video Coding
Битрейт : 778 Кбит/сек
Максимальный битрейт : 5094 Кбит/сек
Ширина : 1280 пикселей
Высота : 720 пикселей
Соотношение сторон : 16:9
Режим частоты кадров : Постоянный
Частота кадров : 15,000 кадров/сек
Цветовое пространство : YUV
Субдискретизация насыщенности : 4:2:0
Битовая глубина : 8 бит
Тип развёртки : Прогрессивная
Бит/(Пиксели*Кадры) : 0.056
Размер потока : 257 Мбайт (80%)
Дата пометки : UTC 2013-12-08 20:05:36

Аудио
Идентификатор : 2
Формат : AAC
Формат/Информация : Advanced Audio Codec
Профиль формата : LC
Идентификатор кодека : 40
Вид битрейта : Переменный
Битрейт : 192 Кбит/сек
Максимальный битрейт : 201 Кбит/сек
Каналы : 2 канала
Расположение каналов : Front: L R
Частота : 44,1 КГц
Метод сжатия : С потерями
Размер потока : 63,5 Мбайт (20%)
Заголовок : IsoMedia File Produced by Google, 5-11-2011
Дата кодирования : UTC 2013-12-08 20:05:14
Дата пометки : UTC 2013-12-08 20:05:36

Качество: PCRec
Формат: MP4
Видео кодек: AVC
Видео: mpeg4,1280x720, 972 Кбит/сек,
Аудио: AAC, 44,1 КГц, stereo, 192 kb/s
pb.wtf



Скачать Autodesk 3ds Max 2014 через торрент http://i60.fastpic.ru/big/2013/1213/28/4a969e203f3b9ac56c9d246e06a11628.png Скачать, смотреть онлайн Autodesk 3ds Max 2014 бесплантно в хорошем качестве Описание: Запись уроков по Autodesk 3ds Max.Уроки преподавались в одной из специализированных академий в формате: Преподаватель - ... 8.7 10 7
Info! Золотая раздача, скачанное не засчитывается.
Торрент: Зарегистрирован [2013-12-13 20:45] · скачан: 749 раз
Статус: √ проверено
Размер: 2.65 GB
Как cкачать? Как скачать Autodesk 3ds Max 2014 через торрент | UTorrent

% Раздел Тема Автор DL S | L
3D моделирование, рендеринг и плагины для них [ 6.59 GB ] Autodesk 3ds Max 2014 [x64] [Eng] Plana Скачать
2 | 0


Последний раз редактировалось: Vovka4849 (2013-12-13 21:03), всего редактировалось 1 раз

28-11-2019 20:33  

Отключить вcю реклaмy на сайте

13-12-2013 20:47 Autodesk 3ds Max 2014 Скачать торрент  

Добавить более нечего !
На усмотрение модератора форума pb.wtf



14-12-2013 00:20 Autodesk 3ds Max 2014 Скачать торрент  

Vovka4849
1. ознакомились ли вы с данными уроками?
2. какими необходимо обладать минимальными знаниями для начала обучения?
3. можно ли отдельно увидеть конечный результат?pb.wtf



14-12-2013 07:01 Autodesk 3ds Max 2014 Скачать торрент  

kalyan82
Я не специалист в этой области но уверен что эти уроки помогут начинающим.
Если у вас есть замечания по теме то было бы правильно их высказать
Я нашел этот релиз,составил техданные и выложил а уж кому интересно тот скачает и оценитpb.wtf



14-12-2013 10:10 Autodesk 3ds Max 2014 Скачать торрент  

Vovka4849
Я тоже не специалист, поэтому как не специалист не могу быть уверен, что эти уроки помогут начинающим.
Замечаний по теме нет, есть конкретные вопросы, на которые я не получил конкретных ответов.
Мне интересно, но информацию я видимо получу из другого источника и безусловно оценю.
Спасибо за внимание.pb.wtf



14-12-2013 11:12 Autodesk 3ds Max 2014 Скачать торрент  

kalyan82
Хочу вас огорчить ! Информацию из других источников вы не получите
Ждем ответы на ваши вопросы в теме pb.wtf



07-02-2014 20:40 Autodesk 3ds Max 2014 Скачать торрент  

постоянно вылетает при создании анимации, а так вроде нормpb.wtf



29-04-2015 22:16 Autodesk 3ds Max 2014 Скачать торрент  

Vovka4849 писал(а):

Добавить более нечего !
На усмотрение модератора форума

огромное спасибо за труд!!очень полезное видео!благодарю yespb.wtf



19-03-2019 17:16 Autodesk 3ds Max 2014 Скачать торрент  

большое спасибо автору, будем учится! yespb.wtf



    Дорогой пользователь! Огромная просьба, поблагодарите релизера, оцените раздачу и оставьте свои комментарий, если Вы скачали Autodesk 3ds Max 2014 через торрент бесплатно!
    Комментировать посты могут только пользователи прошедшие не сложную регистрацию
    Показать сообщения:    

    Autodesk 3ds Max 2014 через торрент
    Скачать бесплатно Autodesk 3ds Max 2014
    Autodesk 3ds Max 2014 скачать торрент
    Autodesk 3ds Max 2014 смотреть онлайн
    Cкачать фильм Autodesk 3ds Max 2014 бесплатно
    Autodesk 3ds Max 2014 скачать торрент в хорошем качестве
    Autodesk 3ds Max 2014 смотреть онлайн бесплатно в хорошем качестве


    Вы не можете начинать темы
    Вы не можете отвечать на сообщения
    Вы не можете редактировать свои сообщения
    Вы не можете удалять свои сообщения
    Вы не можете голосовать в опросах
    Вы не можете прикреплять файлы к сообщениям
    Вы можете скачивать файлы