Ссылка на приватное зеркало нашего сайта всего за 1$. Внимание количество ограничено!!!

2 сезон

iTunes

1 сезон

1

iTunes

iTunes

iTunes

1 сезон

RePack

30

ИГРА 18+

pack

ВАЖНО

!!Акция!!

Alien_RageХит недели

RePack

MK11
pack

Забери бонус

RePack

jed

!!Акция!!

Alien_Rage

RePack

fifa19

RePack

Assassins Creed: Odyssey

RePack

NEED FOR SPEED™ PAYBACK

4 сезон

9 сезон

Бесстыжие 9 сезон

Все сериалы

все сериалы на PB.wtf

RePack

FAR CRY 5
  

Экстремальная работа / Geukhanjikeob / Extreme Job (Ли Бён-хон) [2019, Комедия, криминал, WEB-DL 720p] MVO [КОЛОБОК] pb.wtf

Экстремальная работа через торрент pb.wtf

Раздают: 5 [ 0 KB/s ]
Размер: 4.55 GB | Добавлен: 1 год 7 мес. назад | Торрент скачан:117 раз
Скачать  

21-03-2019 04:08 Экстремальная работа Скачать торрент  

Экстремальная работа / Geukhanjikeob / Extreme Job Год выпуска: 2019
Страна: Южная Корея
Жанр: Комедия, криминал
Продолжительность: 01:53:17
Перевод: Любительский (многоголосый) | КОЛОБОК
Субтитры: отсутствуют

Режиссер: Ли Бён-хон

rating

В ролях:

Рю Сын-нён, Ли Хани, Чин Сон-гю, Ли Дон-хви, Кон Мён, Хо Джун-сок, Сон Ён-гю, Щин Ха-гюн, Ким И-сон, О Джон-сэ

Описание:

Детективы из отдела по борьбе с наркотиками ведут наблюдение за бандой наркоторговцев, сидя в пустом кафе напротив. Когда выясняется, что преступники часто заказывают здесь доставку еды, копы выкупают помещение и начинают там работать под прикрытием. Внезапно их жареная курица становится невероятно популярной, заведение раскручивается, назревает конфликт между долгом и неожиданно найденным призванием.

Качество: WEB-DL 720p
Формат: MKV

Видео: h.264,5 361 Кбит/с, 1280x536
Аудио#1: Русский, (AC3, 2 ch, 384 Кбит/с)
скриншот  скриншот  скриншот  

Общее
Уникальный идентификатор : 183375644222283913424396084754872259394 (0x89F4DD4B2596E0B0B6CFD619CC5BD342)
Полное имя : D:\ExtremeJob.2018.Pk.WEB-DL.72Op.mkv
Формат : Matroska
Версия формата : Version 2
Размер файла : 4,55 Гбайт
Продолжительность : 1 ч. 53 м.
Режим общего битрейта : Переменный
Общий поток : 5747 Кбит/сек
Дата кодирования : UTC 2019-03-20 05:45:27
Программа кодирования : mkvmerge v8.3.0 ('Over the Horizon') 64bit
Библиотека кодирования : libebml v1.3.1 + libmatroska v1.4.2

Видео
Идентификатор : 1
Формат : AVC
Формат/Информация : Advanced Video Codec
Профиль формата : High@L4.1
Параметр CABAC формата : Да
Параметр RefFrames формата : 4 кадра
Идентификатор кодека : V_MPEG4/ISO/AVC
Продолжительность : 1 ч. 53 м.
Вид битрейта : Переменный
Битрейт : 5361 Кбит/сек
Максимальный битрейт : 6000 Кбит/сек
Ширина : 1280 пикселей
Высота : 536 пикселей
Соотношение сторон : 2,40:1
Режим частоты кадров : Постоянный
Частота кадров : 23,976 (24000/1001) кадра/сек
Стандарт вещания : Component
Цветовое пространство : YUV
Субдискретизация насыщенности : 4:2:0
Битовая глубина : 8 бит
Тип развёртки : Прогрессивная
Бит/(Пиксели*Кадры) : 0.319
Размер потока : 4,15 Гбайт (91%)
Default : Да
Forced : Нет
Цветовой диапазон : Limited
Основные цвета : BT.709
Характеристики трансфера : BT.709
Коэффициенты матрицы : BT.709

Аудио
Идентификатор : 2
Формат : AC-3
Формат/Информация : Audio Coding 3
Расширение режима : CM (complete main)
Параметр Endianness формата : Big
Идентификатор кодека : A_AC3
Продолжительность : 1 ч. 53 м.
Вид битрейта : Постоянный
Битрейт : 384 Кбит/сек
Каналы : 2 канала
Расположение каналов : Front: L R
Частота : 48,0 КГц
Частота кадров : 31,250 кадров/сек (1536 spf)
Метод сжатия : С потерями
Размер потока : 311 Мбайт (7%)
Default : Да
Forced : Нет

pb.wtf



Скачать Экстремальная работа через торрент https://d.radikal.ru/d09/1903/23/927e4fc02e1c.jpg Скачать фильм Экстремальная работа через торрент бесплантно в хорошем качестве Описание: Детективы из отдела по борьбе с наркотиками ведут наблюдение за бандой наркоторговцев, сидя в пустом кафе напротив. Когда ... 10 10 5
Info! Золотая раздача, скачанное не засчитывается.
Торрент: Зарегистрирован [2019-03-21 04:08] · скачан: 117 раз
Статус: T временная
Размер: 4.55 GB
Как cкачать? Как скачать Экстремальная работа через торрент | qTorrent

% Раздел Тема Автор DL S | L
T Фильмы (мультфильмы) cо спонсором показа (Новинки AVI/MKV) [ 1.37 GB ] Экстремальная работа / Geukhanjikeob / Extreme Job [2019 HDRip] [MVO] [Line] killermax2013 Скачать
17 | 0
T Фильмы (мультфильмы) cо спонсором показа (Новинки AVI/MKV) [ 1.37 GB ] Экстремальная работа / Geukhanjikeob / Extreme Job [2019 WEB-DLRip] MVO [КОЛОБОК] bober100 Скачать
2 | 0

28-11-2019 20:33  

Отключить всю рекламу на сайте

    Дорогой пользователь! Огромная просьба, поблагодарите релизера, оцените раздачу и оставьте свои комментарий, если Вы скачали Экстремальная работа через торрент бесплатно! Внесите свою лепту в развитие PiratBit!
    Комментировать посты могут только пользователи прошедшие не сложную регистрацию
    Показать сообщения:    

    Экстремальная работа через торрент
    Скачать бесплатно Экстремальная работа
    Экстремальная работа скачать торрент
    Экстремальная работа смотреть онлайн
    Cкачать фильм Экстремальная работа бесплатно
    Экстремальная работа скачать торрент в хорошем качестве
    Экстремальная работа смотреть онлайн бесплатно в хорошем качестве


    Вы не можете начинать темы
    Вы не можете отвечать на сообщения
    Вы не можете редактировать свои сообщения
    Вы не можете удалять свои сообщения
    Вы не можете голосовать в опросах
    Вы не можете прикреплять файлы к сообщениям
    Вы можете скачивать файлы