новый адрес пиратбит piratbit
Мега распродажа FORZA HORIZON 4 ULTIMATE+ВСЕ DLC+ОНЛАЙН всего за 499р. 349 руб. (супер цена). Внимание количество ограничено!!!

iTunes

1+1

iTunes

мы

iTunes

1

iTunes

Чернобыль

iTunes

Ральф против интернета

Лицензия

ПШазам

Лицензия

Игра престолов

Лицензия

30
pack

ВАЖНО

!!Акция!!

Alien_RageХит недели

RePack

Resident Evil 21

ИГРА 18+

pack

RePack

Metro:Exodus

!!Акция!!

Alien_Rage

RePack

fifa19

RePack

Assassins Creed: Odyssey

RePack

NEED FOR SPEED™ PAYBACK

3 сезон

9 сезон

Бесстыжие 9 сезон

Все сериалы

все сериалы на PB.wtf

RePack

FAR CRY 5
Ребята, катастрофически не хватает 1900р. для оплаты серверов за Октябрь (всвязи с блокировками трафик упал в 3 раза), 1-2р., выручайте.
  

Звонок 0: Рождение / Ringu 0: Basudei (Норио Цурута) [2000, ужасы, триллер, BDRip 1080p by msltel] DVO, 2 x AVO pb.wtf

Звонок 0: Рождение через торрент pb.wtf

Размер: 11.88 GB | Добавлен: 7 мес. назад | Торрент скачан:1 раз
Скачать  

22-03-2019 07:57 Звонок 0: Рождение Скачать торрент  

Название: Звонок 0: Рождение
Оригинальное название: Ringu 0: Basudei
Год выпуска: 2000
Страна: Япония
Жанр: ужасы, триллер
Продолжительность: 01:38:46
Перевод: профессиональный двухголосый, авторский

Режиссер: Норио Цурута
В ролях: Юкиэ Накама, Сэйити Танабэ, Кумико Асо, Такеши Вакамацу, Рюджи Мидзуками, Каору Окунуки, Масами Хашимото, Дайскэ Бан, Масако, Норио Мурата, Коши Яно, Тасуку Уно, Акира Игараси, Коши Накано, Каньджи Ватанабе, Йошиюки Моришита, Цукаса Кимура, Акане Тачибана, Масато Оба, Ёдзи Танака, Манабу Кадоваки, Тинами Фуруя, Го Шимада, Таэко Кодама, Нами Асо, Изуми Итагаки, Масафуми Накаи, Норико Нарусэ, Йоко Накатани, Тсутому Ямамото

О фильме: Фильм предлагает предысторию роковых событий «Звонка» — рассказ о юной девушке Садако, которая обнаруживает в себе загадочные и устрашающие способности. Может быть, призрак внутри экрана не исчадие зла, а жертва людской ненависти...



Качество: BDRip 1080p
Формат: MKV
Видео: MPEG-4 AVC, 13.6 Mбит/с, 1920x1036, 23.976 кадр/с
Аудио 1: русский, AC3, 192 kbps, 2 ch, 48 kHz [закадровый двухголосый]
Аудио 2: русский, AC3, 448 kbps, 6 ch, 48 kHz [авторский, Андрей Гаврилов]
Аудио 3: русский, DTS, 1509 kbps, 6 ch, 48 kHz [авторский, Юрий Сербин]
Аудио 4: японский, DTS, 1509 kbps, 6 ch, 48 kHz [оригинал]
Субтитры 1: русские
Субтитры 2: английские
Главы/чаптеры
Общее
Уникальный идентификатор : 229468247357139674551988153086583240485 (0xACA1FA15462C78489F58BE3249FBF725)
Полное имя : D:\Video\Звонок 0.2000.BDRip 1080p by msltel.mkv
Формат : Matroska
Версия формата : Version 4
Размер файла : 11,9 Гбайт
Продолжительность : 1 ч. 38 м.
Общий поток : 17,2 Мбит/сек
Название фильма : Rip by msltel
Дата кодирования : UTC 2019-03-22 05:52:58
Программа кодирования : mkvmerge v8.2.0 ('World of Adventure') 64bit
Библиотека кодирования : libebml v1.3.1 + libmatroska v1.4.2

Видео
Идентификатор : 1
Формат : AVC
Формат/Информация : Advanced Video Codec
Профиль формата : High@L4.1
Настройки формата : CABAC / 4 Ref Frames
Параметр CABAC формата : Да
Параметр RefFrames формата : 4 кадра
Идентификатор кодека : V_MPEG4/ISO/AVC
Продолжительность : 1 ч. 38 м.
Битрейт : 13,6 Мбит/сек
Ширина : 1920 пикселей
Высота : 1036 пикселей
Соотношение сторон : 1,85:1
Режим частоты кадров : Постоянный
Частота кадров : 23,976 (24000/1001) кадра/сек
Цветовое пространство : YUV
Субдискретизация насыщенности : 4:2:0
Битовая глубина : 8 бит
Тип развёртки : Прогрессивная
Бит/(Пиксели*Кадры) : 0.284
Размер потока : 9,36 Гбайт (79%)
Библиотека кодирования : x264 core 157 r2935 545de2f
Настройки программы : cabac=1 / ref=4 / deblock=1:-2:-2 / analyse=0x3:0x113 / me=umh / subme=11 / psy=1 / psy_rd=1.00:0.15 / mixed_ref=1 / me_range=32 / chroma_me=1 / trellis=2 / 8x8dct=1 / cqm=0 / deadzone=21,11 / fast_pskip=0 / chroma_qp_offset=-3 / threads=6 / lookahead_threads=1 / sliced_threads=0 / nr=0 / decimate=1 / interlaced=0 / bluray_compat=0 / constrained_intra=0 / bframes=7 / b_pyramid=2 / b_adapt=2 / b_bias=0 / direct=1 / weightb=1 / open_gop=0 / weightp=2 / keyint=230 / keyint_min=23 / scenecut=40 / intra_refresh=0 / rc_lookahead=40 / rc=crf / mbtree=1 / crf=17.2 / qcomp=0.60 / qpmin=0 / qpmax=69 / qpstep=4 / vbv_maxrate=50000 / vbv_bufsize=62500 / crf_max=0.0 / nal_hrd=none / filler=0 / ip_ratio=1.40 / aq=1:1.00
Язык : Japanese
Default : Да
Forced : Нет

Аудио #1
Идентификатор : 2
Формат : AC-3
Формат/Информация : Audio Coding 3
Коммерческое название : Dolby Digital
Идентификатор кодека : A_AC3
Продолжительность : 1 ч. 38 м.
Вид битрейта : Постоянный
Битрейт : 192 Кбит/сек
Каналы : 2 канала
Channel layout : L R
Частота : 48,0 КГц
Частота кадров : 31,250 кадров/сек (1536 SPF)
Битовая глубина : 16 бит
Метод сжатия : С потерями
Размер потока : 136 Мбайт (1%)
Заголовок : DVO
Язык : Russian
ServiceKind/String : Complete Main
Default : Да
Forced : Нет

Аудио #2
Идентификатор : 3
Формат : AC-3
Формат/Информация : Audio Coding 3
Коммерческое название : Dolby Digital
Идентификатор кодека : A_AC3
Продолжительность : 1 ч. 38 м.
Вид битрейта : Постоянный
Битрейт : 448 Кбит/сек
Каналы : 6 каналов
Channel layout : L R C LFE Ls Rs
Частота : 48,0 КГц
Частота кадров : 31,250 кадров/сек (1536 SPF)
Битовая глубина : 16 бит
Метод сжатия : С потерями
Размер потока : 317 Мбайт (3%)
Заголовок : Андрей Гаврилов
Язык : Russian
ServiceKind/String : Complete Main
Default : Нет
Forced : Нет

Аудио #3
Идентификатор : 4
Формат : DTS
Формат/Информация : Digital Theater Systems
Идентификатор кодека : A_DTS
Продолжительность : 1 ч. 38 м.
Вид битрейта : Постоянный
Битрейт : 1509 Кбит/сек
Каналы : 6 каналов
Channel layout : C L R Ls Rs LFE
Частота : 48,0 КГц
Частота кадров : 93,750 кадра/сек (512 SPF)
Битовая глубина : 16 бит
Метод сжатия : С потерями
Размер потока : 1,04 Гбайт (9%)
Заголовок : Юрий Сербин
Язык : Russian
Default : Нет
Forced : Нет

Аудио #4
Идентификатор : 5
Формат : DTS
Формат/Информация : Digital Theater Systems
Идентификатор кодека : A_DTS
Продолжительность : 1 ч. 38 м.
Вид битрейта : Постоянный
Битрейт : 1509 Кбит/сек
Каналы : 6 каналов
Channel layout : C L R Ls Rs LFE
Частота : 48,0 КГц
Частота кадров : 93,750 кадра/сек (512 SPF)
Битовая глубина : 24 бит
Метод сжатия : С потерями
Размер потока : 1,04 Гбайт (9%)
Заголовок : original
Язык : Japanese
Default : Нет
Forced : Нет

Текст #1
Идентификатор : 6
Формат : UTF-8
Идентификатор кодека : S_TEXT/UTF8
Идентификатор кодека/Информация : UTF-8 Plain Text
Продолжительность : 1 ч. 34 м.
Битрейт : 33 бит/сек
ElementCount : 420
Размер потока : 23,0 Кбайт (0%)
Заголовок : русские
Язык : Russian
Default : Нет
Forced : Нет

Текст #2
Идентификатор : 7
Формат : UTF-8
Идентификатор кодека : S_TEXT/UTF8
Идентификатор кодека/Информация : UTF-8 Plain Text
Продолжительность : 1 ч. 38 м.
Битрейт : 19 бит/сек
ElementCount : 606
Размер потока : 13,9 Кбайт (0%)
Заголовок : английские
Язык : English
Default : Нет
Forced : Нет

Меню
00:00:00.000 : en:00:00:00.000
00:02:40.369 : en:00:02:40.369
00:05:21.071 : en:00:05:21.071
00:09:15.180 : en:00:09:15.180
00:11:44.913 : en:00:11:44.913
00:16:29.947 : en:00:16:29.947
00:18:49.086 : en:00:18:49.086
00:22:51.245 : en:00:22:51.245
00:27:38.323 : en:00:27:38.323
00:32:00.377 : en:00:32:00.377
00:35:17.157 : en:00:35:17.157
00:39:38.459 : en:00:39:38.459
00:42:07.108 : en:00:42:07.108
00:46:42.925 : en:00:46:42.925
00:51:14.446 : en:00:51:14.446
00:55:56.770 : en:00:55:56.770
00:58:26.128 : en:00:58:26.128
01:10:48.703 : en:01:10:48.703
01:17:26.016 : en:01:17:26.016
01:19:58.419 : en:01:19:58.419
01:21:10.699 : en:01:21:10.699
01:28:53.537 : en:01:28:53.537
01:32:09.065 : en:01:32:09.065
01:34:44.429 : en:01:34:44.429
pb.wtf



Скачать Звонок 0: Рождение через торрент https://d.radikal.ru/d07/1903/82/437fb91c73a5.jpg Скачать фильм Звонок 0: Рождение через торрент бесплантно в хорошем качестве О фильме: Фильм предлагает предысторию роковых событий «Звонка» — рассказ о юной девушке Садако, которая обнаруживает в себе загадочные и ... 5 10 1
Торрент: Зарегистрирован [2019-03-22 07:57] · скачан: 1 раз
Статус: √ проверено
Размер: 11.88 GB
Как cкачать? Как скачать Звонок 0: Рождение через торрент | qTorrent

% Раздел Тема Автор DL S | L
Азиатские фильмы [ 4.45 GB ] Звонок 0: Рождение / Ringu 0: Basudei [2000 BDRip 720p by msltel] DVO 2 x AVO msltel Скачать
1 | 0


>> Регистрируемся здесь <<






Отзывы и комментарии о схеме читаем и пишем здесь: ---> Отзывы и комментарии о схеме

Новые благодарочки в телеграм довольных пользователей:
скриншот   скриншот   скриншот   скриншот   скриншот
    Дорогой пользователь! Огромная просьба, поблагодарите релизера, оцените раздачу и оставьте свои комментарий, если Вы скачали Звонок 0: Рождение через торрент бесплатно! Внесите свою лепту в развитие PiratBit!
    Комментировать посты могут только пользователи прошедшие не сложную регистрацию
    Показать сообщения:    

    Звонок 0: Рождение через торрент
    Скачать бесплатно Звонок 0: Рождение
    Звонок 0: Рождение скачать торрент
    Звонок 0: Рождение смотреть онлайн
    Cкачать фильм Звонок 0: Рождение бесплатно
    Звонок 0: Рождение скачать торрент в хорошем качестве
    Звонок 0: Рождение смотреть онлайн бесплатно в хорошем качестве


    Вы не можете начинать темы
    Вы не можете отвечать на сообщения
    Вы не можете редактировать свои сообщения
    Вы не можете удалять свои сообщения
    Вы не можете голосовать в опросах
    Вы не можете прикреплять файлы к сообщениям
    Вы можете скачивать файлы