Всегда рабочее зеркало без VPN и Proxy просто перед .vidak.icu напиши любое слово или цифру, Пример http://ihla.vidak.icu

Лицензия

MVO

1 сезон

1

1 сезон

iTunes

1 сезон

13

1 сезон

Deluxe

pack

Рекомендуем

Repack

30

ВАЖНО

RePack

MK11

RePack

jed

RePack

fifa19

RePack

RDR2

RePack

NEED FOR SPEED™ PAYBACK

Кинопоиск HD

6 сезон

 Острые козырьки 6 сезон

Все сериалы

все сериалы на PB.wtf

RePack

FAR CRY 5
  
Magnet ссылка

Тринадцать дней / Thirteen Days (Роджер Дональдсон) [2000, триллер, драма, история, BDRip 1080p by msltel] DUB, 3 x MVO, AVO pb.wtf

Тринадцать дней через торрент pb.wtf

Размер: 25.28 GB | Добавлен: 3 года 4 мес. назад | Торрент скачан:24 раза
Смотреть онлайн Тринадцать дней | Скачать    Ребята, помогите собрать деньги на оплату серверов!!!

30-03-2019 09:41 Тринадцать дней Скачать торрент  

Название: Тринадцать дней
Оригинальное название: Thirteen Days
Год выпуска: 2000
Страна: США
Жанр: триллер, драма, история
Продолжительность: 02:25:33
Перевод: дублированный, профессиональный многоголосый, авторский

Режиссер: Роджер Дональдсон
В ролях: Кевин Костнер, Брюс Гринвуд, Стивен Калп, Дилан Бэйкер, Шоун Дрисколл, Дрэйк Кук, Люсинда Дженни, Кэйтлин Уэкс, Джон Фостер, Мэттью Данн, Джанет Коулмэн, Брюс Томас, Стефани Романов, Фрэнк Вуд, Дэкин Мэтьюз, Лиз Синклер, Колетт О’Коннелл, Карен Людвиг, Илья Баскин, Джек МакГи, Олек Крупа, Олег Видов

О фильме: Тринадцать дней в октябре 1962 года мир стоял на грани чудовищной катастрофы. Люди на всём земном шаре с волнением ожидали, во что выльется политическая, дипломатическая и военная конфронтация двух сверхдержав США и СССР, бросивших друг другу апокалиптический атомный вызов. Действие фильма переносится из Белого дома, где ведут ожесточенные дебаты военные и политики, в небо над Кубой, где американские самолёты-шпионы следят за развёртыванием советских ракет, и в океанские просторы, которые бороздят американские и советские корабли, готовые в любую минуту вступить в бой...



Качество: BDRip 1080p
Формат: MKV
Видео: MPEG-4 AVC, 18.2 Mбит/с, 1920x1036, 23.976 кадр/с
Аудио 1: русский, AC3, 192 kbps, 2 ch, 48 kHz [дублированный, Мосфильм]
Аудио 2: русский, DTS, 1509 kbps, 6 ch, 48 kHz [закадровый многоголосый, CP Digital]
Аудио 3: русский, DTS, 1509 kbps, 6 ch, 48 kHz [закадровый многоголосый, Карусель]
Аудио 4: русский, DTS, 1509 kbps, 6 ch, 48 kHz [закадровый многоголосый]
Аудио 5: русский, DTS, 1509 kbps, 6 ch, 48 kHz [авторский, Юрий Живов]
Аудио 6: английский, DTS, 1509 kbps, 6 ch, 48 kHz [оригинал]
Субтитры 1: русские
Субтитры 2: английские
Главы/чаптеры
Общее
Уникальный идентификатор : 203122328027758841372671480712247063513 (0x98CFEFF8EFEE948697A496DB35F333D9)
Полное имя : D:\Video\Тринадцать дней.2000.BDRip 1080p by msltel.mkv
Формат : Matroska
Версия формата : Version 4
Размер файла : 25,3 Гбайт
Продолжительность : 2 ч. 25 м.
Общий поток : 24,9 Мбит/сек
Название фильма : Rip by msltel
Дата кодирования : UTC 2019-03-30 10:56:45
Программа кодирования : mkvmerge v8.2.0 ('World of Adventure') 64bit
Библиотека кодирования : libebml v1.3.1 + libmatroska v1.4.2

Видео
Идентификатор : 1
Формат : AVC
Формат/Информация : Advanced Video Codec
Профиль формата : [email protected]
Настройки формата : CABAC / 4 Ref Frames
Параметр CABAC формата : Да
Параметр RefFrames формата : 4 кадра
Идентификатор кодека : V_MPEG4/ISO/AVC
Продолжительность : 2 ч. 25 м.
Битрейт : 18,2 Мбит/сек
Ширина : 1920 пикселей
Высота : 1036 пикселей
Соотношение сторон : 1,85:1
Режим частоты кадров : Постоянный
Частота кадров : 23,976 (24000/1001) кадра/сек
Цветовое пространство : YUV
Субдискретизация насыщенности : 4:2:0
Битовая глубина : 8 бит
Тип развёртки : Прогрессивная
Бит/(Пиксели*Кадры) : 0.381
Размер потока : 18,5 Гбайт (73%)
Библиотека кодирования : x264 core 157 r2935 545de2f
Настройки программы : cabac=1 / ref=4 / deblock=1:-2:-2 / analyse=0x3:0x113 / me=umh / subme=11 / psy=1 / psy_rd=1.00:0.15 / mixed_ref=1 / me_range=32 / chroma_me=1 / trellis=2 / 8x8dct=1 / cqm=0 / deadzone=21,11 / fast_pskip=0 / chroma_qp_offset=-3 / threads=6 / lookahead_threads=1 / sliced_threads=0 / nr=0 / decimate=1 / interlaced=0 / bluray_compat=0 / constrained_intra=0 / bframes=12 / b_pyramid=2 / b_adapt=2 / b_bias=0 / direct=1 / weightb=1 / open_gop=0 / weightp=2 / keyint=230 / keyint_min=23 / scenecut=40 / intra_refresh=0 / rc_lookahead=40 / rc=crf / mbtree=1 / crf=18.2 / qcomp=0.60 / qpmin=0 / qpmax=69 / qpstep=4 / vbv_maxrate=50000 / vbv_bufsize=62500 / crf_max=0.0 / nal_hrd=none / filler=0 / ip_ratio=1.40 / aq=1:1.00
Язык : English
Default : Да
Forced : Нет

Аудио #1
Идентификатор : 2
Формат : AC-3
Формат/Информация : Audio Coding 3
Коммерческое название : Dolby Digital
Идентификатор кодека : A_AC3
Продолжительность : 2 ч. 25 м.
Вид битрейта : Постоянный
Битрейт : 192 Кбит/сек
Каналы : 2 канала
Channel layout : L R
Частота : 48,0 КГц
Частота кадров : 31,250 кадров/сек (1536 SPF)
Битовая глубина : 16 бит
Метод сжатия : С потерями
Размер потока : 200 Мбайт (1%)
Заголовок : DUB Мосфильм
Язык : Russian
ServiceKind/String : Complete Main
Default : Да
Forced : Нет

Аудио #2
Идентификатор : 3
Формат : DTS
Формат/Информация : Digital Theater Systems
Идентификатор кодека : A_DTS
Продолжительность : 2 ч. 25 м.
Вид битрейта : Постоянный
Битрейт : 1510 Кбит/сек
Каналы : 6 каналов
Channel layout : C L R Ls Rs LFE
Частота : 48,0 КГц
Частота кадров : 93,750 кадра/сек (512 SPF)
Битовая глубина : 24 бит
Метод сжатия : С потерями
Размер потока : 1,53 Гбайт (6%)
Заголовок : MVO CP Digital
Язык : Russian
Default : Нет
Forced : Нет

Аудио #3
Идентификатор : 4
Формат : DTS
Формат/Информация : Digital Theater Systems
Идентификатор кодека : A_DTS
Продолжительность : 2 ч. 25 м.
Вид битрейта : Постоянный
Битрейт : 1510 Кбит/сек
Каналы : 6 каналов
Channel layout : C L R Ls Rs LFE
Частота : 48,0 КГц
Частота кадров : 93,750 кадра/сек (512 SPF)
Битовая глубина : 24 бит
Метод сжатия : С потерями
Размер потока : 1,53 Гбайт (6%)
Заголовок : MVO Карусель
Язык : Russian
Default : Нет
Forced : Нет

Аудио #4
Идентификатор : 5
Формат : AC-3
Формат/Информация : Audio Coding 3
Коммерческое название : Dolby Digital
Идентификатор кодека : A_AC3
Продолжительность : 2 ч. 25 м.
Вид битрейта : Постоянный
Битрейт : 448 Кбит/сек
Каналы : 6 каналов
Channel layout : L R C LFE Ls Rs
Частота : 48,0 КГц
Частота кадров : 31,250 кадров/сек (1536 SPF)
Битовая глубина : 16 бит
Метод сжатия : С потерями
Размер потока : 466 Мбайт (2%)
Заголовок : MVO
Язык : Russian
ServiceKind/String : Complete Main
Default : Нет
Forced : Нет

Аудио #5
Идентификатор : 6
Формат : DTS
Формат/Информация : Digital Theater Systems
Идентификатор кодека : A_DTS
Продолжительность : 2 ч. 25 м.
Вид битрейта : Постоянный
Битрейт : 1509 Кбит/сек
Каналы : 6 каналов
Channel layout : C L R Ls Rs LFE
Частота : 48,0 КГц
Частота кадров : 93,750 кадра/сек (512 SPF)
Битовая глубина : 24 бит
Метод сжатия : С потерями
Размер потока : 1,53 Гбайт (6%)
Заголовок : Юрий Живов
Язык : Russian
Default : Нет
Forced : Нет

Аудио #6
Идентификатор : 7
Формат : DTS
Формат/Информация : Digital Theater Systems
Идентификатор кодека : A_DTS
Продолжительность : 2 ч. 25 м.
Вид битрейта : Постоянный
Битрейт : 1509 Кбит/сек
Каналы : 6 каналов
Channel layout : C L R Ls Rs LFE
Частота : 48,0 КГц
Частота кадров : 93,750 кадра/сек (512 SPF)
Битовая глубина : 24 бит
Метод сжатия : С потерями
Размер потока : 1,53 Гбайт (6%)
Заголовок : original
Язык : English
Default : Нет
Forced : Нет

Текст #1
Идентификатор : 8
Формат : UTF-8
Идентификатор кодека : S_TEXT/UTF8
Идентификатор кодека/Информация : UTF-8 Plain Text
Продолжительность : 2 ч. 18 м.
Битрейт : 122 бит/сек
ElementCount : 2156
Размер потока : 123 Кбайт (0%)
Заголовок : русские
Язык : Russian
Default : Нет
Forced : Нет

Текст #2
Идентификатор : 9
Формат : UTF-8
Идентификатор кодека : S_TEXT/UTF8
Идентификатор кодека/Информация : UTF-8 Plain Text
Продолжительность : 2 ч. 15 м.
Битрейт : 72 бит/сек
ElementCount : 2228
Размер потока : 72,5 Кбайт (0%)
Заголовок : английские
Язык : English
Default : Нет
Forced : Нет

Меню
00:00:00.000 : :Chapter 1
00:08:53.533 : :Chapter 2
00:17:12.740 : :Chapter 3
00:25:52.634 : :Chapter 4
00:36:34.400 : :Chapter 5
00:45:18.549 : :Chapter 6
00:52:22.556 : :Chapter 7
01:05:00.187 : :Chapter 8
01:12:52.409 : :Chapter 9
01:22:57.263 : :Chapter 10
01:32:53.776 : :Chapter 11
01:43:48.764 : :Chapter 12
01:54:39.998 : :Chapter 13
02:03:46.669 : :Chapter 14
02:13:06.812 : :Chapter 15
02:25:33.015 : :Chapter 16
pb.wtf



Скачать Тринадцать дней через торрент https://c.radikal.ru/c00/1903/f0/c26d6934eb9e.jpg Скачать, смотреть онлайн Тринадцать дней бесплантно в хорошем качестве О фильме: Тринадцать дней в октябре 1962 года мир стоял на грани чудовищной катастрофы. Люди на всём земном шаре с волнением ожидали, во ... 10 10 1
Info! Золотая раздача, скачанное не засчитывается.
Торрент: Зарегистрирован [2019-03-30 09:41] · скачан: 24 раз
Статус: √ проверено
Размер: 25.28 GB
Как cкачать? Как скачать Тринадцать дней через торрент | UTorrent

% Раздел Тема Автор DL S | L
Фильмы [HD 720p, 1080p] (Хороший звук DUB, MVO) [ 9.72 GB ] Тринадцать дней / Thirteen Days [2000 история BDRip 720p by msltel] DUB 3 x MVO AVO msltel Скачать
1 | 0

28-11-2019 20:33  

Отключить вcю реклaмy на сайте

    Дорогой пользователь! Огромная просьба, поблагодарите релизера, оцените раздачу и оставьте свои комментарий, если Вы скачали Тринадцать дней через торрент бесплатно!
    Комментировать посты могут только пользователи прошедшие не сложную регистрацию
    Показать сообщения:    

    Тринадцать дней через торрент
    Скачать бесплатно Тринадцать дней
    Тринадцать дней скачать торрент
    Тринадцать дней смотреть онлайн
    Cкачать фильм Тринадцать дней бесплатно
    Тринадцать дней скачать торрент в хорошем качестве
    Тринадцать дней смотреть онлайн бесплатно в хорошем качестве


    Вы не можете начинать темы
    Вы не можете отвечать на сообщения
    Вы не можете редактировать свои сообщения
    Вы не можете удалять свои сообщения
    Вы не можете голосовать в опросах
    Вы не можете прикреплять файлы к сообщениям
    Вы можете скачивать файлы