Всегда рабочее зеркало без VPN и Proxy просто перед .vidak.icu напиши любое слово или цифру, Пример http://28ym.vidak.icu

iTunes

2 сезон

1 сезон

1

1 сезон

iTunes

2 сезон

13

1 сезон

Deluxe

pack

Рекомендуем

Пиратка

30

ВАЖНО

RePack

MK11

RePack

jed

RePack

fifa19

RePack

RDR2

RePack

NEED FOR SPEED™ PAYBACK

Кинопоиск HD

6 сезон

 Острые козырьки 6 сезон

Все сериалы

все сериалы на PB.wtf

RePack

FAR CRY 5

Anonymous, нам критически не хватает 5601 руб. на оплату серверов и переферии за Апрель, помоги нам пожалуйста, вся надежда только на тебя. В благодарность мы отключим тебе всю рекламу на сайте!

×
  
Magnet ссылка

Аппассионата / Appassionata (Джанлуиджи Кальдероне) [1974, драма, BDRip 1080p by msltel] AVO pb.wtf

Аппассионата через торрент pb.wtf

Размер: 11.88 GB | Добавлен: 3 года 1 мес. назад | Торрент скачан:0 раз
Смотреть онлайн Аппассионата | Скачать    Ребята, помогите собрать деньги на оплату серверов!!!

02-04-2019 06:41 Аппассионата Скачать торрент  

Название: Аппассионата
Оригинальное название: Appassionata
Год выпуска: 1974
Страна: Италия
Жанр: драма
Продолжительность: 01:38:33
Перевод: авторский

Режиссер: Джанлуиджи Кальдероне
В ролях: Орнелла Мути, Валентина Кортезе, Элеонора Джорджи, Нинетто Даволе, Габриэле Ферцетти, Рената Заменго, Карла Манчини, Луиджи Антонио Гуэрра

О фильме: Необычно складываются отношения в семье врача-стоматолога: дочь-старшеклассница ненавидит свою психически больную мать, в прошлом известную пианистку, и испытывает страсть к отцу. А тот, в свою очередь, любит её одноклассницу...



Качество: BDRip 1080p
Формат: MKV
Видео: MPEG-4 AVC, 15.5 Mбит/с, 1888х1080, 23.976 кадр/с
Аудио 1: русский, AC3, 192 kbps, 2 ch, 48 kHz [авторский, Владимир Штейн]
Аудио 2: итальянский, DTS, 1509 kbps, 2 ch, 48 kHz [оригинал]
Субтитры 1: русские
Субтитры 2: английские
Главы/чаптеры
Общее
Уникальный идентификатор : 173239821367764688327606151579095010733 (0x8254C6A4DF3CB0048526C7C9C2BC0DAD)
Полное имя : D:\Video\Аппассионата.1974.BDRip 1080p by msltel.mkv
Формат : Matroska
Версия формата : Version 4
Размер файла : 11,9 Гбайт
Продолжительность : 1 ч. 38 м.
Общий поток : 17,2 Мбит/сек
Название фильма : Rip by msltel
Дата кодирования : UTC 2019-04-02 06:26:19
Программа кодирования : mkvmerge v8.2.0 ('World of Adventure') 64bit
Библиотека кодирования : libebml v1.3.1 + libmatroska v1.4.2

Видео
Идентификатор : 1
Формат : AVC
Формат/Информация : Advanced Video Codec
Профиль формата : High@L4.1
Настройки формата : CABAC / 4 Ref Frames
Параметр CABAC формата : Да
Параметр RefFrames формата : 4 кадра
Идентификатор кодека : V_MPEG4/ISO/AVC
Продолжительность : 1 ч. 38 м.
Битрейт : 15,5 Мбит/сек
Ширина : 1888 пикселей
Высота : 1020 пикселей
Соотношение сторон : 1,85:1
Режим частоты кадров : Постоянный
Частота кадров : 23,976 (24000/1001) кадра/сек
Цветовое пространство : YUV
Субдискретизация насыщенности : 4:2:0
Битовая глубина : 8 бит
Тип развёртки : Прогрессивная
Бит/(Пиксели*Кадры) : 0.337
Размер потока : 10,7 Гбайт (90%)
Библиотека кодирования : x264 core 157 r2935 545de2f
Настройки программы : cabac=1 / ref=4 / deblock=1:-2:-2 / analyse=0x3:0x113 / me=umh / subme=11 / psy=1 / psy_rd=1.00:0.15 / mixed_ref=1 / me_range=32 / chroma_me=1 / trellis=2 / 8x8dct=1 / cqm=0 / deadzone=21,11 / fast_pskip=0 / chroma_qp_offset=-3 / threads=6 / lookahead_threads=1 / sliced_threads=0 / nr=0 / decimate=1 / interlaced=0 / bluray_compat=0 / constrained_intra=0 / bframes=7 / b_pyramid=2 / b_adapt=2 / b_bias=0 / direct=1 / weightb=1 / open_gop=0 / weightp=2 / keyint=230 / keyint_min=23 / scenecut=40 / intra_refresh=0 / rc_lookahead=40 / rc=crf / mbtree=1 / crf=17.2 / qcomp=0.60 / qpmin=0 / qpmax=69 / qpstep=4 / vbv_maxrate=50000 / vbv_bufsize=62500 / crf_max=0.0 / nal_hrd=none / filler=0 / ip_ratio=1.40 / aq=1:1.00
Язык : Italian
Default : Да
Forced : Нет

Аудио #1
Идентификатор : 2
Формат : AC-3
Формат/Информация : Audio Coding 3
Коммерческое название : Dolby Digital
Идентификатор кодека : A_AC3
Продолжительность : 1 ч. 38 м.
Вид битрейта : Постоянный
Битрейт : 192 Кбит/сек
Каналы : 2 канала
Channel layout : L R
Частота : 48,0 КГц
Частота кадров : 31,250 кадров/сек (1536 SPF)
Битовая глубина : 16 бит
Метод сжатия : С потерями
Размер потока : 135 Мбайт (1%)
Заголовок : Владимир Штейн
Язык : Russian
ServiceKind/String : Complete Main
Default : Да
Forced : Нет

Аудио #2
Идентификатор : 3
Формат : DTS
Формат/Информация : Digital Theater Systems
Идентификатор кодека : A_DTS
Продолжительность : 1 ч. 38 м.
Вид битрейта : Постоянный
Битрейт : 1509 Кбит/сек
Каналы : 2 канала
Channel layout : L R
Частота : 48,0 КГц
Частота кадров : 93,750 кадра/сек (512 SPF)
Битовая глубина : 24 бит
Метод сжатия : С потерями
Размер потока : 1,04 Гбайт (9%)
Заголовок : original
Язык : Italian
Default : Нет
Forced : Нет

Текст #1
Идентификатор : 4
Формат : UTF-8
Идентификатор кодека : S_TEXT/UTF8
Идентификатор кодека/Информация : UTF-8 Plain Text
Продолжительность : 1 ч. 34 м.
Битрейт : 83 бит/сек
ElementCount : 963
Размер потока : 58,1 Кбайт (0%)
Заголовок : русские
Язык : Russian
Default : Нет
Forced : Нет

Текст #2
Идентификатор : 5
Формат : UTF-8
Идентификатор кодека : S_TEXT/UTF8
Идентификатор кодека/Информация : UTF-8 Plain Text
Продолжительность : 1 ч. 30 м.
Битрейт : 55 бит/сек
ElementCount : 899
Размер потока : 36,6 Кбайт (0%)
Заголовок : английские
Язык : English
Default : Нет
Forced : Нет

Меню
00:00:00.000 : en:Chapter 1
00:04:26.057 : en:Chapter 2
00:07:55.016 : en:Chapter 3
00:10:12.028 : en:Chapter 4
00:17:45.273 : en:Chapter 5
00:21:07.975 : en:Chapter 6
00:25:49.715 : en:Chapter 7
00:30:37.044 : en:Chapter 8
00:35:29.586 : en:Chapter 9
00:38:59.963 : en:Chapter 10
00:42:47.774 : en:Chapter 11
00:45:56.504 : en:Chapter 12
00:50:33.072 : en:Chapter 13
00:53:12.773 : en:Chapter 14
00:59:31.777 : en:Chapter 15
01:04:05.133 : en:Chapter 16
01:08:31.983 : en:Chapter 17
01:12:21.087 : en:Chapter 18
01:15:21.517 : en:Chapter 19
01:19:12.456 : en:Chapter 20
01:23:21.038 : en:Chapter 21
01:29:18.270 : en:Chapter 22
01:31:40.870 : en:Chapter 23
01:36:56.894 : en:Chapter 24
pb.wtf



Скачать Аппассионата через торрент https://d.radikal.ru/d30/1904/18/d5a10546c8dd.jpg Скачать, смотреть онлайн Аппассионата бесплантно в хорошем качестве О фильме: Необычно складываются отношения в семье врача-стоматолога: дочь-старшеклассница ненавидит свою психически больную мать, в прошлом ... 5 10 1
Торрент: Зарегистрирован [2019-04-02 06:41] · скачан: 0 раз
Статус: √ проверено
Размер: 11.88 GB
Как cкачать? Как скачать Аппассионата через торрент | UTorrent

% Раздел Тема Автор DL S | L
Фильмы с авторской озвучкой [ 4.29 GB ] Аппассионата / Appassionata [1974 BDRip 720p by msltel] AVO msltel Скачать
1 | 0
Фильмы с авторской озвучкой [ 23.51 GB ] Аппассионата / Appassionata [1974 эротика Blu-Ray Remux 1080p] AVO Леонид Ильич Скачать
1 | 0

28-11-2019 20:33  

Отключить всю рекламу на сайте

    Дорогой пользователь! Огромная просьба, поблагодарите релизера, оцените раздачу и оставьте свои комментарий, если Вы скачали Аппассионата через торрент бесплатно!
    Комментировать посты могут только пользователи прошедшие не сложную регистрацию
    Показать сообщения:    

    Аппассионата через торрент
    Скачать бесплатно Аппассионата
    Аппассионата скачать торрент
    Аппассионата смотреть онлайн
    Cкачать фильм Аппассионата бесплатно
    Аппассионата скачать торрент в хорошем качестве
    Аппассионата смотреть онлайн бесплатно в хорошем качестве


    Вы не можете начинать темы
    Вы не можете отвечать на сообщения
    Вы не можете редактировать свои сообщения
    Вы не можете удалять свои сообщения
    Вы не можете голосовать в опросах
    Вы не можете прикреплять файлы к сообщениям
    Вы можете скачивать файлы