Ссылка на приватное зеркало всего за 1$. Внимание количество ограничено!!!

iTunes

1+1

iTunes

мы

MV0

1

WEB-DLRip

Джокер

Пифагор

Ведьмак / The Witcher сериал

iTunes

ПШазам

iTunes

Оно 2

iTunes

30
pack

Вам бонус

ВАЖНО

!!Акция!!

Alien_RageХит недели

RePack

Resident Evil 21

ИГРА 18+

pack

RePack

jed

!!Акция!!

Alien_Rage

RePack

fifa19

RePack

Assassins Creed: Odyssey

RePack

NEED FOR SPEED™ PAYBACK

4 сезон

9 сезон

Бесстыжие 9 сезон

Все сериалы

все сериалы на PB.wtf

RePack

FAR CRY 5
  

Мамочка не навредит тебе / Mommy Would Never Hurt You (Даниэль Луско) [2019, Триллер, HDTVRip 720p] MVO [AlphaProject] pb.wtf

Мамочка не навредит тебе через торрент pb.wtf

Размер: 2.86 GB | Добавлен: 10 мес. назад | Торрент скачан:8 раз
Скачать  

04-04-2019 02:31 Мамочка не навредит тебе Скачать торрент  

Мамочка не навредит тебе / Mommy Would Never Hurt YouГод выпуска: 2019
Страна: США
Жанр: Триллер
Продолжительность: 01:25:07
Перевод: Любительский (многоголосый) | AlphaProject
Субтитры: отсутствуют

Режиссер: Даниэль Луско

rating

В ролях:

Микаври Амая, Зак Голд, Либби Манро, Кристен Ваганос

Описание: Райли хочет восстановить свои отношения с матерью и младшей сестрой, которые оказались заперты в доме из-за болезни сестры. Спустя некоторое время Райли начинает понимать, что ее сестра, возможно, вовсе и не больна. Однако их мать не остановится ни перед чем, чтобы до конца своих дней удержать дочерей рядом с собой.

Качество: HDTVRip 720p
Формат: MKV

Видео: h.264, 4 422 Кбит/с, 1280x720
Аудио#1: Русский, (AC3, 2 ch, 384 Кбит/с)
скриншот  скриншот  скриншот  

Общее
Уникальный идентификатор : 219354939679504377950757946693154351908 (0xA50639847C00DE12AD88E1B182DDAB24)
Полное имя : D:\Mommy.Would.Never.Hurt.You.2019.Pa.HDTV.72Op.mkv
Формат : Matroska
Версия формата : Version 2
Размер файла : 2,86 Гбайт
Продолжительность : 1 ч. 25 м.
Режим общего битрейта : Переменный
Общий поток : 4807 Кбит/сек
Дата кодирования : UTC 2019-04-03 20:10:36
Программа кодирования : mkvmerge v8.3.0 ('Over the Horizon') 64bit
Библиотека кодирования : libebml v1.3.1 + libmatroska v1.4.2

Видео
Идентификатор : 1
Формат : AVC
Формат/Информация : Advanced Video Codec
Профиль формата : High@L4.1
Параметр CABAC формата : Да
Параметр RefFrames формата : 4 кадра
Идентификатор кодека : V_MPEG4/ISO/AVC
Продолжительность : 1 ч. 25 м.
Вид битрейта : Переменный
Битрейт : 4422 Кбит/сек
Максимальный битрейт : 5000 Кбит/сек
Ширина : 1280 пикселей
Высота : 720 пикселей
Соотношение сторон : 16:9
Режим частоты кадров : Постоянный
Частота кадров : 23,976 (24000/1001) кадра/сек
Стандарт вещания : Component
Цветовое пространство : YUV
Субдискретизация насыщенности : 4:2:0
Битовая глубина : 8 бит
Тип развёртки : Прогрессивная
Бит/(Пиксели*Кадры) : 0.196
Размер потока : 2,57 Гбайт (90%)
Default : Да
Forced : Нет
Цветовой диапазон : Limited
Основные цвета : BT.709
Характеристики трансфера : BT.709
Коэффициенты матрицы : BT.709

Аудио
Идентификатор : 2
Формат : AC-3
Формат/Информация : Audio Coding 3
Расширение режима : CM (complete main)
Параметр Endianness формата : Big
Идентификатор кодека : A_AC3
Продолжительность : 1 ч. 25 м.
Вид битрейта : Постоянный
Битрейт : 384 Кбит/сек
Каналы : 2 канала
Расположение каналов : Front: L R
Частота : 48,0 КГц
Частота кадров : 31,250 кадров/сек (1536 spf)
Метод сжатия : С потерями
Размер потока : 234 Мбайт (8%)
Default : Да
Forced : Нет

pb.wtf



Скачать Мамочка не навредит тебе через торрент https://d.radikal.ru/d14/1904/c7/05a131333fe2.jpg Скачать фильм Мамочка не навредит тебе через торрент бесплантно в хорошем качестве Описание: Райли хочет восстановить свои отношения с матерью и младшей сестрой, которые оказались заперты в доме из-за болезни сестры. ... 7 10 3
Торрент: Зарегистрирован [2019-04-04 02:31] · скачан: 8 раз
Статус: T временная
Размер: 2.86 GB
Как cкачать? Как скачать Мамочка не навредит тебе через торрент | qTorrent

% Раздел Тема Автор DL S | L
T Фильмы (мультфильмы) cо спонсором показа (Новинки AVI/MKV) [ 1.37 GB ] Мамочка не навредит тебе / Mommy Would Never Hurt You [2019 HDTVRip] MVO [AlphaProject] bober100 Скачать
1 | 0

28-11-2019 20:33  

Отключить всю рекламу на сайте

    Дорогой пользователь! Огромная просьба, поблагодарите релизера, оцените раздачу и оставьте свои комментарий, если Вы скачали Мамочка не навредит тебе через торрент бесплатно! Внесите свою лепту в развитие PiratBit!
    Комментировать посты могут только пользователи прошедшие не сложную регистрацию
    Показать сообщения:    

    Мамочка не навредит тебе через торрент
    Скачать бесплатно Мамочка не навредит тебе
    Мамочка не навредит тебе скачать торрент
    Мамочка не навредит тебе смотреть онлайн
    Cкачать фильм Мамочка не навредит тебе бесплатно
    Мамочка не навредит тебе скачать торрент в хорошем качестве
    Мамочка не навредит тебе смотреть онлайн бесплатно в хорошем качестве


    Вы не можете начинать темы
    Вы не можете отвечать на сообщения
    Вы не можете редактировать свои сообщения
    Вы не можете удалять свои сообщения
    Вы не можете голосовать в опросах
    Вы не можете прикреплять файлы к сообщениям
    Вы можете скачивать файлы