Мега распродажа FORZA HORIZON 4 ULTIMATE+ВСЕ DLC+ОНЛАЙН всего за 499р. 349 руб. (супер цена). Внимание количество ограничено!!!

iTunes

1+1

iTunes

мы

iTunes

1

1 сезон

Чернобыль

1 сезон

Ральф против интернета

Лицензия

ПШазам

8 сезон

Игра престолов

Лицензия

30
pack

ВАЖНО

!!Акция!!

Alien_RageХит недели

RePack

Resident Evil 21

ИГРА 18+

pack

RePack

Metro:Exodus

!!Акция!!

Alien_Rage

RePack

fifa19

RePack

Assassins Creed: Odyssey

RePack

NEED FOR SPEED™ PAYBACK

3 сезон

9 сезон

Бесстыжие 9 сезон

Все сериалы

все сериалы на PB.wtf

RePack

FAR CRY 5
Ребята, катастрофически не хватает 2730р. для оплаты серверов за ИЮНЬ (всвязи с блокировками трафик упал в 3 раза), 1-2р., выручайте.
  

Тень / Ying / Shadow (Чжан Имоу) [2018, драма, боевик, BDRip 720p] MVO [HDrezka Studio] +DUB [iTunes] pb.wtf

Тень через торрент pb.wtf

Раздают: 2 [ 495 KB/s ]
Размер: 5.54 GB | Добавлен: 3 мес. 13 д. назад | Торрент скачан:74 раза
Скачать  

07-04-2019 05:17 Тень Скачать торрент  

Тень / Ying / Shadow Год выпуска: 2018
Страна: Китай, Гонконг
Жанр: драма, боевик
Продолжительность: 01:55:47
Перевод:

Дублированный | iTunes
Профессиональный (многоголосый, закадровый) | HDRezka Studio

Субтитры: Русские, Английские

Режиссер: Чжан Имоу

rating

В ролях:

Ден Чао, Сунь Ли, Чжэн Кай, Ван Цяньюань, Ван Цзинчунь, Ху Цзюнь, Гуань Сяотун, У Лэй, Фэн Бай

Описание:

Эпоха Троецарствия. Без ведома короля командующий Цзы Юй вызвал на дуэль генерала Яна, который захватил и удерживает город государства Пэй. Из-за своенравия командующий попадет в немилость правителя и лишается привилегий, но свою затею не оставляет. Только жена умирающего Юя знает, что вместо супруга уже целый год действует Тень, ещё с детства специально обученный двойник, а сам Юй сидит взаперти и строит коварные планы.

Качество: BDRip 720p
Формат: MKV

Видео: AVC/H.264, 1280x536, ~4768 Кbps, 24 fps
Аудио#1: AC3, 6 ch, 384 Kbps - Русский (DUB)
Аудио#2: AC3, 2 ch, 192 Kbps - Русский (MVO)
Аудио#3: DTS, 6 ch, 1509 Kbps - Китайский
скриншот  скриншот  скриншот  скриншот  

Общее
Уникальный идентификатор : 9924399257643273076387929917029143580 (0x7775EA950862CFDC0B4374E6B94D41C)
Полное имя : Shadow.2018.BDRip.720p.W.mkv
Формат : Matroska
Версия формата : Version 4
Размер файла : 5,54 Гбайт
Продолжительность : 1 ч. 55 м.
Общий поток : 6853 Кбит/сек
Название фильма : Shadow.2018.BDRip.720p.W
Дата кодирования : UTC 2019-03-28 15:49:20
Программа кодирования : mkvmerge v23.0.0 ('The Bride Said No') 64-bit
Библиотека кодирования : libebml v1.3.6 + libmatroska v1.4.9

Видео
Идентификатор : 1
Формат : AVC
Формат/Информация : Advanced Video Codec
Профиль формата : High@L4.1
Настройки формата : CABAC / 12 Ref Frames
Параметр CABAC формата : Да
Параметр RefFrames формата : 12 кадров
Идентификатор кодека : V_MPEG4/ISO/AVC
Продолжительность : 1 ч. 55 м.
Битрейт : 4768 Кбит/сек
Ширина : 1280 пикселей
Высота : 536 пикселей
Соотношение сторон : 2,40:1
Режим частоты кадров : Постоянный
Частота кадров : 24,000 кадра/сек
Цветовое пространство : YUV
Субдискретизация насыщенности : 4:2:0
Битовая глубина : 8 бит
Тип развёртки : Прогрессивная
Бит/(Пиксели*Кадры) : 0.290
Размер потока : 3,85 Гбайт (70%)
Заголовок : rip by -=walledol=-
Библиотека кодирования : x264 core 157 r2935 545de2f
Настройки программы : cabac=1 / ref=12 / deblock=1:-3:-3 / analyse=0x3:0x133 / me=umh / subme=11 / psy=1 / psy_rd=1.00:0.00 / mixed_ref=1 / me_range=32 / chroma_me=1 / trellis=2 / 8x8dct=1 / cqm=0 / deadzone=21,11 / fast_pskip=0 / chroma_qp_offset=-2 / threads=12 / lookahead_threads=3 / sliced_threads=0 / nr=0 / decimate=1 / interlaced=0 / bluray_compat=0 / constrained_intra=0 / bframes=10 / b_pyramid=2 / b_adapt=2 / b_bias=0 / direct=3 / weightb=1 / open_gop=0 / weightp=2 / keyint=240 / keyint_min=24 / scenecut=40 / intra_refresh=0 / rc_lookahead=60 / rc=2pass / mbtree=0 / bitrate=4768 / ratetol=1.0 / qcomp=0.60 / qpmin=0 / qpmax=69 / qpstep=4 / cplxblur=20.0 / qblur=0.5 / vbv_maxrate=30000 / vbv_bufsize=33000 / nal_hrd=none / filler=0 / ip_ratio=1.40 / pb_ratio=1.30 / aq=3:0.80
Язык : Chinese
Default : Да
Forced : Нет

Аудио #1
Идентификатор : 2
Формат : AC-3
Формат/Информация : Audio Coding 3
Коммерческое название : Dolby Digital
Идентификатор кодека : A_AC3
Продолжительность : 1 ч. 55 м.
Вид битрейта : Постоянный
Битрейт : 384 Кбит/сек
Каналы : 6 каналов
Channel layout : L R C LFE Ls Rs
Частота : 48,0 КГц
Частота кадров : 31,250 кадров/сек (1536 SPF)
Битовая глубина : 16 бит
Метод сжатия : С потерями
Размер потока : 318 Мбайт (6%)
Заголовок : DUB | iTunes
Язык : Russian
ServiceKind : Complete Main
Default : Да
Forced : Нет

Аудио #2
Идентификатор : 3
Формат : AC-3
Формат/Информация : Audio Coding 3
Коммерческое название : Dolby Digital
Идентификатор кодека : A_AC3
Продолжительность : 1 ч. 55 м.
Вид битрейта : Постоянный
Битрейт : 192 Кбит/сек
Каналы : 2 канала
Channel layout : L R
Частота : 48,0 КГц
Частота кадров : 31,250 кадров/сек (1536 SPF)
Битовая глубина : 16 бит
Метод сжатия : С потерями
Размер потока : 159 Мбайт (3%)
Заголовок : MVO | HDRezka Studio
Язык : Russian
ServiceKind : Complete Main
Default : Нет
Forced : Нет

Аудио #3
Идентификатор : 4
Формат : DTS
Формат/Информация : Digital Theater Systems
Идентификатор кодека : A_DTS
Продолжительность : 1 ч. 55 м.
Вид битрейта : Постоянный
Битрейт : 1509 Кбит/сек
Каналы : 6 каналов
Channel layout : C L R Ls Rs LFE
Частота : 48,0 КГц
Частота кадров : 93,750 кадра/сек (512 SPF)
Битовая глубина : 24 бит
Метод сжатия : С потерями
Размер потока : 1,22 Гбайт (22%)
Язык : Chinese
Default : Нет
Forced : Нет

Текст #1
Идентификатор : 5
Формат : UTF-8
Идентификатор кодека : S_TEXT/UTF8
Идентификатор кодека/Информация : UTF-8 Plain Text
Продолжительность : 1 ч. 45 м.
Битрейт : 52 бит/сек
ElementCount : 1050
Размер потока : 40,3 Кбайт (0%)
Язык : Russian
Default : Нет
Forced : Нет

Текст #2
Идентификатор : 6
Формат : UTF-8
Идентификатор кодека : S_TEXT/UTF8
Идентификатор кодека/Информация : UTF-8 Plain Text
Продолжительность : 1 ч. 44 м.
Битрейт : 28 бит/сек
ElementCount : 1072
Размер потока : 21,7 Кбайт (0%)
Язык : English
Default : Нет
Forced : Нет

Меню
00:00:00.000 : en:Chapter 01
00:12:27.250 : en:Chapter 02
00:19:40.958 : en:Chapter 03
00:30:19.875 : en:Chapter 04
00:41:09.958 : en:Chapter 05
00:48:45.125 : en:Chapter 06
00:54:49.875 : en:Chapter 07
01:02:35.125 : en:Chapter 08
01:10:27.083 : en:Chapter 09
01:20:40.208 : en:Chapter 10
01:28:10.250 : en:Chapter 11
01:38:00.333 : en:Chapter 12

pb.wtf



Скачать Тень через торрент http://b.radikal.ru/b37/1903/4b/8d0bac6a0225.jpg Скачать фильм Тень через торрент бесплантно в хорошем качестве Описание: Эпоха Троецарствия. Без ведома короля командующий Цзы Юй вызвал на дуэль генерала Яна, который захватил и удерживает город ... 10 10 3
Торрент: Зарегистрирован [2019-04-07 05:17] · скачан: 74 раз
Статус: √ проверено
Размер: 5.54 GB
Как cкачать? Как скачать Тень через торрент | qTorrent

% Раздел Тема Автор DL S | L
Ultra HD (UHD: 2K, 4K, 8K) — видео сверхвысокой чёткости [ 16.09 GB ] Тень / Ying [2018 UHD BDRip 2160p] + MVO [HDRezka Studio] sheker187 Скачать
3 | 0
Ultra HD (UHD: 2K, 4K, 8K) — видео сверхвысокой чёткости [ 50.41 GB ] Тень / Ying [2018 UHD BDRemux 2160p] + MVO [HDRezka Studio] sheker187 Скачать
2 | 0
Азиатские фильмы [ 8.4 GB ] Тень / Ying / Shadow [2018 BDRip 1080p] MVO [HDrezka Studio] + bober100 Скачать
2 | 0
Азиатские фильмы [ 1.41 GB ] Тень / Ying / Shadow [2018 BDRip] bober100 Скачать
4 | 0
Фильмы (Blu-ray, BD-Remux, HDDVD) [ 17.12 GB ] Тень / Ying / Shadow [2018 BD Remux 1080p] MVO [HDrezka Studio] + bober100 Скачать
1 | 0
Азиатские фильмы [ 4.18 GB ] Тень / Ying [2018 WEB-DL 1080p] MVO [HDrezka Studio] -Lexx- Скачать
1 | 0
Азиатские фильмы [ 1.37 GB ] Змея в тени орла / Snake In The Eagles Shadow [1978 боевые искусства DVDRip] nobana Скачать
1 | 0


>> Регистрируемся здесь <<






Отзывы и комментарии о схеме читаем и пишем здесь: ---> Отзывы и комментарии о схеме

Новые благодарочки в телеграм довольных пользователей:
скриншот   скриншот   скриншот   скриншот   скриншот
    Дорогой пользователь! Огромная просьба, поблагодарите релизера, оцените раздачу и оставьте свои комментарий, если Вы скачали Тень через торрент бесплатно! Внесите свою лепту в развитие PiratBit!
    Комментировать посты могут только пользователи прошедшие не сложную регистрацию
    Показать сообщения:    

    Тень через торрент
    Скачать бесплатно Тень
    Тень скачать торрент
    Тень смотреть онлайн
    Cкачать фильм Тень бесплатно
    Тень скачать торрент в хорошем качестве
    Тень смотреть онлайн бесплатно в хорошем качестве


    Вы не можете начинать темы
    Вы не можете отвечать на сообщения
    Вы не можете редактировать свои сообщения
    Вы не можете удалять свои сообщения
    Вы не можете голосовать в опросах
    Вы не можете прикреплять файлы к сообщениям
    Вы можете скачивать файлы