Ссылка на приватное зеркало нашего сайта всего за 1$. Внимание количество ограничено!!!

2 сезон

iTunes

1 сезон

1

iTunes

iTunes

iTunes

1 сезон

RePack

30

ИГРА 18+

pack

ВАЖНО

!!Акция!!

Alien_RageХит недели

RePack

MK11
pack

Забери бонус

RePack

jed

!!Акция!!

Alien_Rage

RePack

fifa19

RePack

Assassins Creed: Odyssey

RePack

NEED FOR SPEED™ PAYBACK

4 сезон

9 сезон

Бесстыжие 9 сезон

Все сериалы

все сериалы на PB.wtf

RePack

FAR CRY 5
  

Альфа / Alpha (Альберт Хьюз) [2018, драма, приключения, семейный, UHD WEBRip 2160p] MVO (rus, ukr) [Лицензия] pb.wtf

Альфа через торрент pb.wtf

Раздают: 1 [ 0 KB/s ]
Размер: 15.27 GB | Добавлен: 1 год 10 мес. назад | Торрент скачан:166 раз
Скачать  

19-12-2018 19:12 Альфа Скачать торрент  

Альфа / Alpha«История дружбы, изменившей мир»
Год выпуска: 2018
Страна: США
Жанр: драма, приключения, семейный
Продолжительность: 01:36:30
Перевод: Профессиональный (многоголосый) | Лицензия
Субтитры: Русские (Forced, full), украинские (Full), английские

Режиссер: Альберт Хьюз

rating

В ролях:

Коди Смит-МакФи (Keda), Йоуханнес Хёйкьюр Йоуханнессон (Tau), Марцин Ковальчик (Sigma), Йенс Хультен (Xi), Наташа Мальте (Rho), Спенсер Богерт (Kappa), Мерседес Де Ла Зерда (Nu), Леонор Варела (Shaman Woman), Морган Фриман (рассказчик, озвучка), Прия Раджаратнам (Huntress, слухи), Lucy Ssuubi (Wolf Tribe #2), Нестор де ла Серда (Solutrean Hunter #1, в титрах не указан)
Описание:

20 000 лет назад Земля была холодным и неуютным местом, в котором смерть подстерегала человека на каждом шагу, а жизнь зависела от того, удалось ли загнать добычу или нет. Молодой охотник из племени, которое по уровню жизни и культуры было одним из самых развитых на планете, оказывается один на один с враждебным миром, полным смертельных опасностей. Ему предстоит заглянуть в лицо своим страхам и найти дорогу домой. И возможно, от исхода его путешествия зависит судьба всего человечества.

Качество: UHD WEBRip 2160p
Формат: MKV

Видео: HEVC HDR, 19900 Кбит/c, 3840x1604, 23.976 Кадр/с, 10 bit
Аудио#1: 48 kHz, AC3, 5.1, 640 Kbps | Лицензия | RUS |
Аудио#2: 48 kHz, AC3, 5.1, 640 Kbps | Лицензия | UKR |скриншот  
Аудио#3: 48 kHz, DTS, 5.1, 1509 Kbps | Оригинал | ENG |
скриншот  
скриншот  скриншот  скриншот  

Общее
Уникальный идентификатор : 173608706122003452202609744426178933109 (0x829BD2110CE9619FB47193D650937175)
Полное имя : D:\Alpha.2018.2160p.WEBRip.x265.10bit.HDR.Master5.mkv
Формат : Matroska
Версия формата : Version 4 / Version 2
Размер файла : 15,3 Гбайт
Продолжительность : 1 ч. 36 м.
Общий поток : 22,7 Мбит/сек
Название фильма : Alpha.2018.2160p.WEBRip.x265.10bit.HDR.Master5
Дата кодирования : UTC 2018-12-19 17:29:47
Программа кодирования : mkvmerge v7.9.0 ('Birds') 64bit
Библиотека кодирования : libebml v1.3.1 + libmatroska v1.4.2

Видео
Идентификатор : 1
Формат : HEVC
Формат/Информация : High Efficiency Video Coding
Профиль формата : Main 10@L5.1@High
Идентификатор кодека : V_MPEGH/ISO/HEVC
Продолжительность : 1 ч. 36 м.
Битрейт : 19,9 Мбит/сек
Ширина : 3840 пикселей
Высота : 1604 пикселя
Соотношение сторон : 2,40:1
Режим частоты кадров : Постоянный
Частота кадров : 23,976 (24000/1001) кадра/сек
Цветовое пространство : YUV
Субдискретизация насыщенности : 4:2:0 (Type 2)
Битовая глубина : 10 бит
Бит/(Пиксели*Кадры) : 0.131
Размер потока : 13,1 Гбайт (86%)
Заголовок : Alpha.2018.2160p.WEBRip.x265.10bit.HDR.Master5
Библиотека кодирования : x265 2.9+2-7e978ed93d60:[Windows][MSVC 1915][64 bit] 10bit
Настройки программы : cpuid=1111039 / frame-threads=4 / numa-pools=28 / wpp / no-pmode / no-pme / no-psnr / no-ssim / log-level=2 / input-csp=1 / input-res=3840x1604 / interlace=0 / total-frames=138826 / level-idc=51 / high-tier=1 / uhd-bd=0 / ref=4 / no-allow-non-conformance / repeat-headers / annexb / aud / hrd / info / hash=0 / no-temporal-layers / no-open-gop / min-keyint=24 / keyint=240 / gop-lookahead=0 / bframes=4 / b-adapt=2 / b-pyramid / bframe-bias=0 / rc-lookahead=25 / lookahead-slices=4 / scenecut=40 / radl=0 / no-intra-refresh / ctu=64 / min-cu-size=8 / rect / no-amp / max-tu-size=32 / tu-inter-depth=1 / tu-intra-depth=1 / limit-tu=0 / rdoq-level=2 / dynamic-rd=0.00 / no-ssim-rd / signhide / no-tskip / nr-intra=0 / nr-inter=0 / no-constrained-intra / no-strong-intra-smoothing / max-merge=3 / limit-refs=3 / limit-modes / me=3 / subme=3 / merange=57 / temporal-mvp / weightp / no-weightb / no-analyze-src-pics / deblock=-3:-3 / no-sao / no-sao-non-deblock / rd=4 / no-early-skip / rskip / no-fast-intra / no-tskip-fast / no-cu-lossless / no-b-intra / no-splitrd-skip / rdpenalty=0 / psy-rd=2.00 / psy-rdoq=1.00 / no-rd-refine / no-lossless / cbqpoffs=0 / crqpoffs=0 / rc=crf / crf=12.0 / qcomp=0.80 / qpstep=4 / stats-write=0 / stats-read=0 / vbv-maxrate=160000 / vbv-bufsize=160000 / vbv-init=0.9 / crf-max=0.0 / crf-min=0.0 / ipratio=1.40 / pbratio=1.30 / aq-mode=1 / aq-strength=1.00 / cutree / zone-count=0 / no-strict-cbr / qg-size=32 / no-rc-grain / qpmax=69 / qpmin=0 / no-const-vbv / sar=1 / overscan=0 / videoformat=5 / range=0 / colorprim=9 / transfer=16 / colormatrix=9 / chromaloc=1 / chromaloc-top=2 / chromaloc-bottom=2 / display-window=0 / master-display=G(8500,39850)B(6550,2300)R(35400,14600)WP(15635,16450)L(40000000,41250) / max-cll=0,0 / min-luma=0 / max-luma=1023 / log2-max-poc-lsb=8 / vui-timing-info / vui-hrd-info / slices=1 / no-opt-qp-pps / no-opt-ref-list-length-pps / no-multi-pass-opt-rps / scenecut-bias=0.05 / no-opt-cu-delta-qp / no-aq-motion / hdr / hdr-opt / no-dhdr10-opt / no-idr-recovery-sei / analysis-reuse-level=5 / scale-factor=0 / refine-intra=0 / refine-inter=0 / refine-mv=0 / no-limit-sao / ctu-info=0 / no-lowpass-dct / refine-mv-type=0 / copy-pic=1 / max-ausize-factor=1.0 / no-dynamic-refine / no-single-sei
Default : Да
Forced : Нет
Цветовой диапазон : Limited
Основные цвета : BT.2020
Характеристики трансфера : SMPTE ST 2084
Коэффициенты матрицы : BT.2020 non-constant
MasteringDisplay_ColorPrimaries : R: x=0.708000 y=0.292000, G: x=0.170000 y=0.797000, B: x=0.131000 y=0.046000, White point: x=0.312700 y=0.329000
MasteringDisplay_Luminance : min: 4.1250 cd/m2, max: 4000.0000 cd/m2

Аудио #1
Идентификатор : 2
Формат : AC-3
Формат/Информация : Audio Coding 3
Расширение режима : CM (complete main)
Параметр Endianness формата : Big
Идентификатор кодека : A_AC3
Продолжительность : 1 ч. 36 м.
Вид битрейта : Постоянный
Битрейт : 640 Кбит/сек
Каналы : 6 каналов
Расположение каналов : Front: L C R, Side: L R, LFE
Частота : 48,0 КГц
Частота кадров : 31,250 кадров/сек (1536 spf)
Метод сжатия : С потерями
Размер потока : 442 Мбайт (3%)
Заголовок : License
Язык : Russian
Default : Да
Forced : Да

Аудио #2
Идентификатор : 3
Формат : AC-3
Формат/Информация : Audio Coding 3
Расширение режима : CM (complete main)
Параметр Endianness формата : Big
Идентификатор кодека : A_AC3
Продолжительность : 1 ч. 36 м.
Вид битрейта : Постоянный
Битрейт : 640 Кбит/сек
Каналы : 6 каналов
Расположение каналов : Front: L C R, Side: L R, LFE
Частота : 48,0 КГц
Частота кадров : 31,250 кадров/сек (1536 spf)
Метод сжатия : С потерями
Размер потока : 442 Мбайт (3%)
Заголовок : License
Язык : Ukrainian
Default : Нет
Forced : Нет

Аудио #3
Идентификатор : 4
Формат : DTS
Формат/Информация : Digital Theater Systems
Режим : 16
Параметр Endianness формата : Big
Идентификатор кодека : A_DTS
Продолжительность : 1 ч. 36 м.
Вид битрейта : Постоянный
Битрейт : 1509 Кбит/сек
Каналы : 6 каналов
Расположение каналов : Front: L C R, Side: L R, LFE
Частота : 48,0 КГц
Частота кадров : 93,750 кадра/сек (512 spf)
Битовая глубина : 24 бит
Метод сжатия : С потерями
Размер потока : 1,02 Гбайт (7%)
Заголовок : Original
Язык : English
Default : Нет
Forced : Нет

Текст #1
Идентификатор : 5
Формат : UTF-8
Идентификатор кодека : S_TEXT/UTF8
Идентификатор кодека/Информация : UTF-8 Plain Text
Заголовок : Forced
Язык : Russian
Default : Да
Forced : Да

Текст #2
Идентификатор : 6
Формат : UTF-8
Идентификатор кодека : S_TEXT/UTF8
Идентификатор кодека/Информация : UTF-8 Plain Text
Заголовок : Full
Язык : Russian
Default : Нет
Forced : Нет

Текст #3
Идентификатор : 7
Формат : UTF-8
Идентификатор кодека : S_TEXT/UTF8
Идентификатор кодека/Информация : UTF-8 Plain Text
Заголовок : Full
Язык : Ukrainian
Default : Нет
Forced : Нет

Текст #4
Идентификатор : 8
Формат : UTF-8
Идентификатор кодека : S_TEXT/UTF8
Идентификатор кодека/Информация : UTF-8 Plain Text
Заголовок : English Forced
Язык : English
Default : Нет
Forced : Нет

Текст #5
Идентификатор : 9
Формат : UTF-8
Идентификатор кодека : S_TEXT/UTF8
Идентификатор кодека/Информация : UTF-8 Plain Text
Заголовок : Full
Язык : English
Default : Нет
Forced : Нет

Меню
00:00:00.000 : en:1
00:07:43.713 : en:2
00:10:56.071 : en:3
00:16:56.639 : en:4
00:21:43.299 : en:5
00:25:54.967 : en:6
00:32:36.618 : en:7
00:38:19.251 : en:8
00:42:37.383 : en:9
00:47:54.323 : en:10
00:54:07.404 : en:11
00:59:27.222 : en:12
01:07:08.975 : en:13
01:14:08.727 : en:14
01:18:56.264 : en:15
01:25:42.294 : en:16

pb.wtf



Скачать Альфа через торрент http://img15.lostpic.net/2018/12/19/bcae8aefc0154efb0ca85a4c29402ea2.png Скачать фильм Альфа через торрент бесплантно в хорошем качестве Описание: 20 000 лет назад Земля была холодным и неуютным местом, в котором смерть подстерегала человека на каждом шагу, а жизнь зависела ... 8.7 10 7
Info! Золотая раздача, скачанное не засчитывается.
Торрент: Зарегистрирован [2018-12-19 19:17] · скачан: 166 раз
Статус: √ проверено
Размер: 15.27 GB
Как cкачать? Как скачать Альфа через торрент | qTorrent

% Раздел Тема Автор DL S | L
Порно фильмы с сюжетом [ 1.67 GB ] Альфа-Самец / Alpha Male [2020 All Sex Feature WEB-DL] bashai5 Скачать
3 | 0
Фильмы 2018 [DVDrip, WEB-DLRip, HDrip] (DUB, MVO) [ 750 MB ] Альфа / Alpha [2018 HDRip] MVO [] bober100 Скачать
4 | 0
Зарубежные Мультфильмы (BDRip 1080p, 720p, Blu-ray, BD-Remux) [ 20.78 GB ] Яблочное зернышко: Проект Альфа / Appleseed Alpha [2014 BD Remux Любительский ] aradox Скачать
3 | 0
Зарубежные сериалы [ 20.22 GB ] Альфа-дом / Alpha House / Сезон: 2 / Серии: 1-10 из 10 [2014 WEB-DL 1080p] [MVO] killermax2013 Скачать
1 | 0
Зарубежные сериалы [ 21.34 GB ] Альфа-дом / Alpha House / Сезон: 1 / Серии: 1-11 из 11 [2013 WEBRip 1080p] [MVO] killermax2013 Скачать
1 | 0
Фильмы (Blu-ray, BD-Remux, HDDVD) [ 17.65 GB ] Альфа / Alpha [2018 BDRemux 1080p] MVO [] sheker187 Скачать
2 | 0
Фильмы 2018 [DVDrip, WEB-DLRip, HDrip] (DUB, MVO) [ 1.46 GB ] Альфа / Alpha [2018 BDRip] MVO [] Twi7ter Скачать
4 | 0

28-11-2019 20:33  

Отключить всю рекламу на сайте

07-04-2019 17:27 Альфа Скачать торрент  

Скажите, почему в этом фильме отстает звук, как исправить?pb.wtf



08-04-2019 22:59 Альфа Скачать торрент  

Спасибо за релиз ,но могли бы вы рассинхрон убрать,пожалуйста.pb.wtf



    Дорогой пользователь! Огромная просьба, поблагодарите релизера, оцените раздачу и оставьте свои комментарий, если Вы скачали Альфа через торрент бесплатно! Внесите свою лепту в развитие PiratBit!
    Комментировать посты могут только пользователи прошедшие не сложную регистрацию
    Показать сообщения:    

    Альфа через торрент
    Скачать бесплатно Альфа
    Альфа скачать торрент
    Альфа смотреть онлайн
    Cкачать фильм Альфа бесплатно
    Альфа скачать торрент в хорошем качестве
    Альфа смотреть онлайн бесплатно в хорошем качестве


    Вы не можете начинать темы
    Вы не можете отвечать на сообщения
    Вы не можете редактировать свои сообщения
    Вы не можете удалять свои сообщения
    Вы не можете голосовать в опросах
    Вы не можете прикреплять файлы к сообщениям
    Вы можете скачивать файлы