MEGA SALE -50% FORZA HORIZON 4 ULTIMATE+ВСЕ DLC+ОНЛАЙН всего за 599р. 299 руб. (супер цена). Внимание количество ограничено!!!

iTunes

1+1

iTunes

мы

iTunes

1

iTunes

Чернобыль

iTunes

Ральф против интернета

Лицензия

ПШазам

Лицензия

Игра престолов

Лицензия

30
pack

ВАЖНО

!!Акция!!

Alien_RageХит недели

RePack

Resident Evil 21

ИГРА 18+

pack

RePack

Metro:Exodus

!!Акция!!

Alien_Rage

RePack

fifa19

RePack

Assassins Creed: Odyssey

RePack

NEED FOR SPEED™ PAYBACK

3 сезон

9 сезон

Бесстыжие 9 сезон

Все сериалы

все сериалы на PB.wtf

RePack

FAR CRY 5
Ребята, катастрофически не хватает 7730р. для оплаты серверов за АВГУСТ (всвязи с блокировками трафик упал в 3 раза), 1-2р., выручайте.
  

Маникарника: Королева Джханси / Manikarnika: The Queen of Jhansi (Радха Кришна Джагарламуди, Кангана Ранаут) [2019, Драма, история, биография, военный, боевик, WEB-DLRip 1080p] [MVO] pb.wtf

Маникарника: Королева Джханси через торрент pb.wtf

Размер: 5.86 GB | Добавлен: 5 мес. 9 д. назад | Торрент скачан:32 раза
Скачать  

09-04-2019 15:41 Маникарника: Королева Джханси Скачать торрент  

Маникарника: Королева Джханси / Manikarnika: The Queen of Jhansi Год выпуска: 2019
Страна: Индия
Жанр: Драма, история, биография, военный, боевик
Продолжительность: 02:20:23
Перевод : Профессиональный (многоголосый закадровый) *
Субтитры: Русские (на песни)

Режиссер: Радха Кришна Джагарламуди, Кангана Ранаут

В ролях: Кангана Ранаут, Рими Сен, Эдвард Зонненблик, Кулбхушан Харбанда, Daniel O'Kane, Мишти, Анкита Локханде, Мохаммед Зишан Айюб, Джишу Сенгупта, R. Bhakti Klein и другие

Описание: Фильм, основанный на реальных событиях, поведает историю жизни Рани Лакшми Бай — правительницы королевства Джханси. Воспитанная влиятельным пешвой, Рани с юных лет покоряла сердца мужчин своей храбростью, но лишь предложение о браке с королем Джханси побудило ее покинуть дом. Свадьба короля огорчила его родного брата Гангадхара, который водил дружбу с англичанами и желал с их помощью узурпировать трон. Когда британские захватчики начали военные действия, Рани Лакшми Бай стала первой индийской женщиной, решившей бороться за независимость с оружием в руках...

ratingскриншот  

Качество видео: WEB-DLRip 1080p
Формат видео: MKV
Видео кодек: H264
Аудио кодек: AC3
Видео: AVC, 1920x816, 25 fps, ~5300 kbps avg
Аудио: 48 kHz, AC3 Dolby Digital, 3/2 (L,C,R,l,r) + LFE ch, ~640 kbps
* - Озвучка: Маргарита Сахно, Екатерина Муравицкая, Кирилл Патрино, Михаил Цареградский и Константин Федосеев
General
Unique ID : 170501659786088422168717225036614477200 (0x80456CDAE37C8BEE8EBFDC5628CC2590)
Complete name : E:\Manikarnika.Koroleva.Jhansi.2019.WEB-DLRip.MPEG-AVC.1080p.Honey&Haseena.mkv
Format : Matroska
Format version : Version 4 / Version 2
File size : 5.86 GiB
Duration : 2 h 20 min
Overall bit rate : 5 978 kb/s
Encoded date : UTC 2019-04-07 10:33:37
Writing application : mkvmerge v8.3.0 ('Over the Horizon') 32bit
Writing library : libebml v1.3.1 + libmatroska v1.4.2

Video
ID : 1
Format : AVC
Format/Info : Advanced Video Codec
Format profile : High@L4
Format settings : CABAC / 4 Ref Frames
Format settings, CABAC : Yes
Format settings, RefFrames : 4 frames
Codec ID : V_MPEG4/ISO/AVC
Duration : 2 h 20 min
Bit rate : 5 219 kb/s
Width : 1 920 pixels
Height : 816 pixels
Display aspect ratio : 2.35:1
Frame rate mode : Constant
Frame rate : 25.000 FPS
Color space : YUV
Chroma subsampling : 4:2:0
Bit depth : 8 bits
Scan type : Progressive
Bits/(Pixel*Frame) : 0.133
Stream size : 5.12 GiB (87%)
Default : Yes
Forced : No
Color range : Limited
Color primaries : BT.709
Transfer characteristics : BT.709
Matrix coefficients : BT.709

Audio
ID : 3
Format : AC-3
Format/Info : Audio Coding 3
Format settings, Endianness : Big
Codec ID : A_AC3
Duration : 2 h 20 min
Bit rate mode : Constant
Bit rate : 640 kb/s
Channel(s) : 6 channels
Channel positions : Front: L C R, Side: L R, LFE
Sampling rate : 48.0 kHz
Frame rate : 31.250 FPS (1536 SPF)
Bit depth : 16 bits
Compression mode : Lossy
Stream size : 643 MiB (11%)
Service kind : Complete Main
Default : Yes
Forced : No

Text
ID : 2
Format : UTF-8
Codec ID : S_TEXT/UTF8
Codec ID/Info : UTF-8 Plain Text
Default : Yes
Forced : No
скриншот  скриншот  скриншот  
pb.wtf



Скачать Маникарника: Королева Джханси через торрент https://i110.fastpic.ru/big/2019/0409/a5/d239bea5ddeb7a6ba64a4550e8db7ea5.jpg Скачать фильм Маникарника: Королева Джханси через торрент бесплантно в хорошем качестве Описание: Фильм, основанный на реальных событиях, поведает историю жизни Рани Лакшми Бай — правительницы королевства Джханси. Воспитанная ... 10 10 2
Торрент: Зарегистрирован [2019-04-09 15:41] · скачан: 32 раз
Статус: √ проверено
Размер: 5.86 GB
Как cкачать? Как скачать Маникарника: Королева Джханси через торрент | qTorrent


>> Регистрируемся здесь <<






Отзывы и комментарии о схеме читаем и пишем здесь: ---> Отзывы и комментарии о схеме

Новые благодарочки в телеграм довольных пользователей:
скриншот   скриншот   скриншот   скриншот   скриншот
    Дорогой пользователь! Огромная просьба, поблагодарите релизера, оцените раздачу и оставьте свои комментарий, если Вы скачали Маникарника: Королева Джханси через торрент бесплатно! Внесите свою лепту в развитие PiratBit!
    Комментировать посты могут только пользователи прошедшие не сложную регистрацию
    Показать сообщения:    

    Маникарника: Королева Джханси через торрент
    Скачать бесплатно Маникарника: Королева Джханси
    Маникарника: Королева Джханси скачать торрент
    Маникарника: Королева Джханси смотреть онлайн
    Cкачать фильм Маникарника: Королева Джханси бесплатно
    Маникарника: Королева Джханси скачать торрент в хорошем качестве
    Маникарника: Королева Джханси смотреть онлайн бесплатно в хорошем качестве


    Вы не можете начинать темы
    Вы не можете отвечать на сообщения
    Вы не можете редактировать свои сообщения
    Вы не можете удалять свои сообщения
    Вы не можете голосовать в опросах
    Вы не можете прикреплять файлы к сообщениям
    Вы можете скачивать файлы