Доктор Стрэндж

Лицензия

Добыча

Дубляж

Дом дракона

1 сезон

Тор

Дубляж

В эфире

Дубляж

Там, где раки поют

MVO

Властелин колец

1 сезон

GLOBAL

pack

Рекомендуем

30

Пиратка

ВАЖНО

ВАЖНО

Ghostwire

Пиратка

jed

RePack

nioh2

RePack

RDR2

RePack

NEED FOR SPEED™ PAYBACK

RePack

скачать торрент

Кинопоиск HD

Острые козырьки 6 сезон

6 сезон

FAR CRY 6

RePack

скачать торрент

Лицензия

скачать торрент

MVO

1

1 сезон

скачать торрент

1 сезон

скачать торрент

Лицензия

  

Шутки в сторону / De l'autre côté du périph (Давид Шарон) [2012 г., Комедия, HDRip, Дубляж, лицензия]

Шутки в сторону через торрент pb.wtf

Размер: 1.46 GB | Добавлен: 9 лет 5 мес. назад | Торрент скачан:939 раз
Смотреть онлайн | Скачать   

14-06-2013 17:32 Шутки в сторону Скачать торрент  

Шутки в сторону / De l'autre côté du périphГод выпуска: 2012
Страна: Франция
Жанр: Комедия,
Продолжительность: 01:34:44
Перевод: Дубляж, Лицензия

Режиссер: Давид Шарон



В ролях: Омар Си, Лоран Лафитт, Сабрина Уазани, Лионель Абелански, Юсеф Хаджди, Максим Мотт, Лео Леотье, Андре Маркон, Забу Брайтман, Патрик Боннель,

Описание: Усман, дерзкий коп из парижского пригорода, и Франсуа, амбициозный столичный полицейский, объединяют усилия в расследовании убийства жены большого чиновника. Усман и Франсуа — разные. Усман живет по законам комедий с Эдди Мерфи, Франсуа обожает Бельмондо в «Профессионале» и «Смертельное оружие». Но расхождение в киновкусах — ничто, когда на кону громкое разоблачение коррупции в самых верхах и, конечно, дружба! Один плюс один = команда, а шутки — в сторону!

Качество: HDRip
Формат: AVI
Видео кодек: XviD
Аудио кодек: AC3
Видео: 1743 Кбит/с, 720х304, 24 fps
Аудио#1: AC3, 6 ch, 448 Кбит/с, 48 kHz
Релиз от: IRONCLUB

бщее
Полное имя : E:Download-UT++Shutki.v.storonu.2012.D.HDRip.IRONCLUB.avi
Формат : AVI
Формат/Информация : Audio Video Interleave
Размер файла : 1,46 Гбайт
Продолжительность : 1 ч. 34 м.
Общий поток : 2201 Кбит/сек
Название фильма : Shutki.v.storonu.2012.D.HDRip.IRONCLUB
Режиссёр : IRONCLUB
Жанр : Comedy
Программа кодирования : VirtualDubMod 1.5.10.2 (build 2540/release)
Формат оригинала/Имя : Movie

Видео
Идентификатор : 0
Формат : MPEG-4 Visual
Профиль формата : Advanced [email protected]
Параметр BVOP формата : 2
Параметр QPel формата : Нет
Параметр GMC формата : Без точки перехода
Параметр матрицы формата : Выборочная
Идентификатор кодека : XVID
Идентификатор кодека/Подсказка : XviD
Продолжительность : 1 ч. 34 м.
Битрейт : 1743 Кбит/сек
Ширина : 720 пикселей
Высота : 304 пикселя
Соотношение сторон : 2,35:1
Частота кадров : 24,000 кадра/сек
Цветовое пространство : YUV
Субдискретизация насыщенности : 4:2:0
Битовая глубина : 8 бит
Тип развёртки : Прогрессивная
Метод сжатия : С потерями
Бит/(Пиксели*Кадры) : 0.332
Размер потока : 1,15 Гбайт (79%)
Библиотека кодирования : XviD 64

Аудио
Идентификатор : 1
Формат : AC-3
Формат/Информация : Audio Coding 3
Расширение режима : CM (complete main)
Параметр Endianness формата : Big
Идентификатор кодека : 2000
Продолжительность : 1 ч. 34 м.
Вид битрейта : Постоянный
Битрейт : 448 Кбит/сек
Каналы : 6 каналов
Расположение каналов : Front: L C R, Side: L R, LFE
Частота : 48,0 КГц
Битовая глубина : 16 бит
Метод сжатия : С потерями
Размер потока : 304 Мбайт (20%)
Выравнивание : Разделение по промежуткам
Продолжительность промежутка : 42 мс. (1,00 видеокадр)
Время предзагрузки промежутка : 500 мс.




Скачать Шутки в сторону через торрент http://uploadpic.ru/img/2013-06/14/q7y5gn76of6pr7tqftgpal7xa.jpg Скачать, смотреть онлайн Шутки в сторону бесплантно в хорошем качестве Описание: Усман, дерзкий коп из парижского пригорода, и Франсуа, амбициозный столичный полицейский, объединяют усилия в расследовании ... 9.7 10 32
Info! Золотая раздача, скачанное не засчитывается.
Торрент: Зарегистрирован [2013-06-14 17:32] · скачан: 939 раз
Статус: √ проверено
Размер: 1.46 GB
Как cкачать? Как скачать Шутки в сторону через торрент | UTorrent

% Раздел Тема Автор DL S | L
Фильмы (Blu-ray, BD-Remux, HDDVD) [ 24.94 GB ] Шутки в сторону / De l'autre côté du périph | DUB | 1080p Ворон Скачать
1 | 0
Фильмы (DVD фильмы) [ 7.33 GB ] Шутки в сторону / De l'autre cote du periph | | Шутки в сторону / De l'autre cote du periph (Давид Шарон / David Charhon voovaz Скачать
1 | 0
Фильмы [HD 720p, 1080p] (Хороший звук DUB, MVO) [ 5.36 GB ] Шутки в сторону / De l'autre côté du périph | DUB | 720p Ворон Скачать
1 | 0



Последний раз редактировалось: k1z (2013-06-14 18:51), всего редактировалось 2 раз(а)

28-11-2019 20:33  


Отключить вcю реклaмy на сайте, в т.ч. и в плеере онлайн просмотра!

14-06-2013 18:04 Шутки в сторону Скачать торрент  

как фильм?



14-06-2013 18:29 Шутки в сторону Скачать торрент  

читал отзывы на многих сайтах - средне, сам посмотрев "1+1" заинтересовался сильно просмотром т.к. Омар Си снимается... но никак не получается



14-06-2013 18:42 Шутки в сторону Скачать торрент  

k1z писал(а):

Видео: 1608 Кбит/с

Правим как в MediaInfoMediaInfo ссылка на сторонний ресурс, на будущее проверяйте тщательно.



12-04-2019 15:32 Шутки в сторону Скачать торрент  

дайте скорости плиз



    Дорогой пользователь! Огромная просьба, поблагодарите релизера, оцените раздачу и оставьте свои комментарий, если Вы скачали Шутки в сторону через торрент бесплатно!!
    Комментировать посты могут только пользователи прошедшие не сложную регистрацию
    Показать сообщения:    


    Шутки в сторону через торрент
    Скачать бесплатно Шутки в сторону
    Шутки в сторону скачать торрент
    Шутки в сторону смотреть онлайн
    Cкачать фильм Шутки в сторону бесплатно
    Шутки в сторону скачать торрент в хорошем качестве
    Шутки в сторону смотреть онлайн бесплатно в хорошем качестве
    Вы не можете начинать темы
    Вы не можете отвечать на сообщения
    Вы не можете редактировать свои сообщения
    Вы не можете удалять свои сообщения
    Вы не можете голосовать в опросах
    Вы не можете прикреплять файлы к сообщениям
    Вы можете скачивать файлы
    Шутки в сторону / De l'autre côté du périph [2012 г., Комедия, HDRip, Дубляж, лицензия] смотреть онлайн, скачать торрент picoco.icu