Ссылка на приватное зеркало нашего сайта всего за 1$. Внимание количество ограничено!!!

2 сезон

iTunes

1 сезон

1

iTunes

iTunes

iTunes

1 сезон

RePack

30

ИГРА 18+

pack

ВАЖНО

!!Акция!!

Alien_RageХит недели

RePack

MK11
pack

Забери бонус

RePack

jed

!!Акция!!

Alien_Rage

RePack

fifa19

RePack

Assassins Creed: Odyssey

RePack

NEED FOR SPEED™ PAYBACK

4 сезон

9 сезон

Бесстыжие 9 сезон

Все сериалы

все сериалы на PB.wtf

RePack

FAR CRY 5
  

Непонятная любовь / L'amour flou (Романа Боренже, Филипп Реббо) [2018, комедия, BDRip 720p] MVO [AlphaProject] pb.wtf

Непонятная любовь через торрент pb.wtf

Размер: 4.85 GB | Добавлен: 1 год 6 мес. назад | Торрент скачан:19 раз
Скачать  

21-04-2019 16:38 Непонятная любовь Скачать торрент  

Непонятная любовь / L'amour flouГод выпуска: 2018
Страна: Франция
Жанр: комедия
Продолжительность: 01:37:58
Перевод: Любительский (многоголосый) | AlphaProject
Субтитры: отсутствуют

Режиссер: Романа Боренже, Филипп Реббо

rating

В ролях: Романа Боренже, Филипп Реббо, Роза Ребо-Берингер, Рауль Ребо-Берингер, Бриджитт Катийон, Орелия Пети, Филипп Стэнж, Франсуа Пикар, Матье Сампур, Ив Сторпер

Описание: Развод случился, несмотря на десять вместе прожитых лет, двоих детей и собаку. Двое больше не любят друг друга. Или... Больше не влюблены. Тем не менее, они любят друг друга. Очень. Слишком любят, чтобы развестись по-настоящему. Короче говоря, все непонятно.

Качество: BDRip 720p
Формат: MKV

Видео: h.264,6 633 Кбит/с, 1280x692
Аудио: Русский (AC3, 2 ch, 448 Кбит/с)
скриншот  скриншот  скриншот  

Общее
Уникальный идентификатор : 228901112325747223526780733139678239875 (0xAC34C02ACE60FB4CB4656ECB9EBD9C83)
Полное имя : D:\L.Amour.Flou.2018.P.BDRip.72Op.mkv
Формат : Matroska
Версия формата : Version 2
Размер файла : 4,85 Гбайт
Продолжительность : 1 ч. 37 м.
Режим общего битрейта : Переменный
Общий поток : 7082 Кбит/сек
Дата кодирования : UTC 2019-04-18 08:06:19
Программа кодирования : mkvmerge v8.3.0 ('Over the Horizon') 64bit
Библиотека кодирования : libebml v1.3.1 + libmatroska v1.4.2

Видео
Идентификатор : 1
Формат : AVC
Формат/Информация : Advanced Video Codec
Профиль формата : High@L4.1
Параметр CABAC формата : Да
Параметр RefFrames формата : 4 кадра
Идентификатор кодека : V_MPEG4/ISO/AVC
Продолжительность : 1 ч. 37 м.
Вид битрейта : Переменный
Битрейт : 6633 Кбит/сек
Максимальный битрейт : 7500 Кбит/сек
Ширина : 1280 пикселей
Высота : 692 пикселя
Соотношение сторон : 1,85:1
Режим частоты кадров : Постоянный
Частота кадров : 23,976 (24000/1001) кадра/сек
Стандарт вещания : Component
Цветовое пространство : YUV
Субдискретизация насыщенности : 4:2:0
Битовая глубина : 8 бит
Тип развёртки : Прогрессивная
Бит/(Пиксели*Кадры) : 0.306
Размер потока : 4,44 Гбайт (92%)
Default : Да
Forced : Нет
Цветовой диапазон : Limited
Основные цвета : BT.709
Характеристики трансфера : BT.709
Коэффициенты матрицы : BT.709

Аудио
Идентификатор : 2
Формат : AC-3
Формат/Информация : Audio Coding 3
Расширение режима : CM (complete main)
Параметр Endianness формата : Big
Идентификатор кодека : A_AC3
Продолжительность : 1 ч. 37 м.
Вид битрейта : Постоянный
Битрейт : 448 Кбит/сек
Каналы : 2 канала
Расположение каналов : Front: L R
Частота : 48,0 КГц
Частота кадров : 31,250 кадров/сек (1536 spf)
Метод сжатия : С потерями
Размер потока : 314 Мбайт (6%)
Default : Да
Forced : Нет

pb.wtf



Скачать Непонятная любовь через торрент https://b.radikal.ru/b05/1904/d8/7985b3890f91.jpg Скачать фильм Непонятная любовь через торрент бесплантно в хорошем качестве Описание: Развод случился, несмотря на десять вместе прожитых лет, двоих детей и собаку. Двое больше не любят друг друга. Или... Больше не ... 10 10 2
Торрент: Зарегистрирован [2019-04-21 16:38] · скачан: 19 раз
Статус: T временная
Размер: 4.85 GB
Как cкачать? Как скачать Непонятная любовь через торрент | qTorrent

28-11-2019 20:33  

Отключить всю рекламу на сайте

    Дорогой пользователь! Огромная просьба, поблагодарите релизера, оцените раздачу и оставьте свои комментарий, если Вы скачали Непонятная любовь через торрент бесплатно! Внесите свою лепту в развитие PiratBit!
    Комментировать посты могут только пользователи прошедшие не сложную регистрацию
    Показать сообщения:    

    Непонятная любовь через торрент
    Скачать бесплатно Непонятная любовь
    Непонятная любовь скачать торрент
    Непонятная любовь смотреть онлайн
    Cкачать фильм Непонятная любовь бесплатно
    Непонятная любовь скачать торрент в хорошем качестве
    Непонятная любовь смотреть онлайн бесплатно в хорошем качестве


    Вы не можете начинать темы
    Вы не можете отвечать на сообщения
    Вы не можете редактировать свои сообщения
    Вы не можете удалять свои сообщения
    Вы не можете голосовать в опросах
    Вы не можете прикреплять файлы к сообщениям
    Вы можете скачивать файлы