MEGA SALE -75% Borderlands 3 Super Deluxe всего за 550р. 180 руб. (супер цена). Внимание количество ограничено!!!

iTunes

1+1

iTunes

мы

iTunes

1

iTunes

Чернобыль

iTunes

Ральф против интернета

Лицензия

ПШазам

Лицензия

Игра престолов

Лицензия

30
pack

ВАЖНО

!!Акция!!

Alien_RageХит недели

RePack

Resident Evil 21

ИГРА 18+

pack

RePack

Metro:Exodus

!!Акция!!

Alien_Rage

RePack

fifa19

RePack

Assassins Creed: Odyssey

RePack

NEED FOR SPEED™ PAYBACK

3 сезон

9 сезон

Бесстыжие 9 сезон

Все сериалы

все сериалы на PB.wtf

RePack

FAR CRY 5
Ребята, катастрофически не хватает 1900р. для оплаты серверов за АВГУСТ (всвязи с блокировками трафик упал в 3 раза), 1-2р., выручайте.
  

Дикий поиск / Ban wo chuang tian ya (Ринго Лэм) [1989, боевик, криминал, мелодрама, BDRip 720p by msltel] AVO pb.wtf

Дикий поиск через торрент pb.wtf

Размер: 5.21 GB | Добавлен: 5 мес. 21 д. назад | Торрент скачан:1 раз
Скачать  

23-04-2019 07:19 Дикий поиск Скачать торрент  

Название: Дикий поиск
Оригинальное название: Ban wo chuang tian ya
Год выпуска: 1989
Страна: Гонконг
Жанр: боевик, криминал, мелодрама
Продолжительность: 01:38:49
Перевод: авторский

Режиссер: Ринго Лэм
В ролях: Юнь-Фат Чоу, Чери Чунг, Рой Чеунг, Томми Вонг, Винсент Ван, Вонг Квонг-Фай, Фенг Ку, Лам Чунг-Квок, Лау Конг, Пол Чун

О фильме: Гонконг. Убита торговка оружием. Без присмотра остаётся её маленькая дочь Ка Ка, которая видела убийцу своей матери, крутого парня по имени Пуля. Девочку забирает к себе Шер, сестра убитой, а полицейский по прозвищу Миу Миу приставлен к ним, чтобы девочка опознала убийцу своей матери...



Качество: BDRip 720p
Формат: MKV
Видео: MPEG-4 AVC, 6718 Кбит/с, 1280x720
Аудио 1: русский, AC3, 192 kbps, 2 ch, 48 kHz [авторский, Сергей Кузнецов]
Аудио 2: китайский, AC3, 640 kbps, 6 ch, 48 kHz [оригинал]
Субтитры: английские
Главы/чаптеры
Общее
Уникальный идентификатор : 215324250362329527218469823250283064290 (0xA1FDF130E8E93AC683124E7213DF6BE2)
Полное имя : D:\Video\Дикий поиск.1989.BDRip 720p by msltel.mkv
Формат : Matroska
Версия формата : Version 4
Размер файла : 5,21 Гбайт
Продолжительность : 1 ч. 38 м.
Общий поток : 7553 Кбит/сек
Название фильма : Rip by msltel
Дата кодирования : UTC 2019-04-23 02:00:25
Программа кодирования : mkvmerge v8.2.0 ('World of Adventure') 64bit
Библиотека кодирования : libebml v1.3.1 + libmatroska v1.4.2

Видео
Идентификатор : 1
Формат : AVC
Формат/Информация : Advanced Video Codec
Профиль формата : High@L4.1
Настройки формата : CABAC / 9 Ref Frames
Параметр CABAC формата : Да
Параметр RefFrames формата : 9 кадров
Идентификатор кодека : V_MPEG4/ISO/AVC
Продолжительность : 1 ч. 38 м.
Битрейт : 6718 Кбит/сек
Ширина : 1280 пикселей
Высота : 720 пикселей
Соотношение сторон : 16:9
Режим частоты кадров : Постоянный
Частота кадров : 24,000 кадра/сек
Цветовое пространство : YUV
Субдискретизация насыщенности : 4:2:0
Битовая глубина : 8 бит
Тип развёртки : Прогрессивная
Бит/(Пиксели*Кадры) : 0.304
Размер потока : 4,64 Гбайт (89%)
Библиотека кодирования : x264 core 157 r2935 545de2f
Настройки программы : cabac=1 / ref=9 / deblock=1:-2:-2 / analyse=0x3:0x113 / me=umh / subme=11 / psy=1 / psy_rd=1.00:0.15 / mixed_ref=1 / me_range=32 / chroma_me=1 / trellis=2 / 8x8dct=1 / cqm=0 / deadzone=21,11 / fast_pskip=0 / chroma_qp_offset=-3 / threads=6 / lookahead_threads=1 / sliced_threads=0 / nr=0 / decimate=1 / interlaced=0 / bluray_compat=0 / constrained_intra=0 / bframes=7 / b_pyramid=2 / b_adapt=2 / b_bias=0 / direct=1 / weightb=1 / open_gop=0 / weightp=2 / keyint=230 / keyint_min=23 / scenecut=40 / intra_refresh=0 / rc_lookahead=40 / rc=crf / mbtree=1 / crf=20.0 / qcomp=0.60 / qpmin=0 / qpmax=69 / qpstep=4 / vbv_maxrate=50000 / vbv_bufsize=62500 / crf_max=0.0 / nal_hrd=none / filler=0 / ip_ratio=1.40 / aq=1:1.00
Язык : Chinese
Default : Да
Forced : Нет

Аудио #1
Идентификатор : 2
Формат : AC-3
Формат/Информация : Audio Coding 3
Коммерческое название : Dolby Digital
Идентификатор кодека : A_AC3
Продолжительность : 1 ч. 38 м.
Вид битрейта : Постоянный
Битрейт : 192 Кбит/сек
Каналы : 2 канала
Channel layout : L R
Частота : 48,0 КГц
Частота кадров : 31,250 кадров/сек (1536 SPF)
Битовая глубина : 16 бит
Метод сжатия : С потерями
Размер потока : 136 Мбайт (3%)
Заголовок : Сергей Кузнецов
Язык : Russian
ServiceKind/String : Complete Main
Default : Да
Forced : Нет

Аудио #2
Идентификатор : 3
Формат : AC-3
Формат/Информация : Audio Coding 3
Коммерческое название : Dolby Digital
Идентификатор кодека : A_AC3
Продолжительность : 1 ч. 38 м.
Вид битрейта : Постоянный
Битрейт : 640 Кбит/сек
Каналы : 6 каналов
Channel layout : L R C LFE Ls Rs
Частота : 48,0 КГц
Частота кадров : 31,250 кадров/сек (1536 SPF)
Битовая глубина : 16 бит
Метод сжатия : С потерями
Размер потока : 452 Мбайт (8%)
Заголовок : original
Язык : Chinese
ServiceKind/String : Complete Main
Default : Нет
Forced : Нет

Текст
Идентификатор : 4
Формат : UTF-8
Идентификатор кодека : S_TEXT/UTF8
Идентификатор кодека/Информация : UTF-8 Plain Text
Продолжительность : 1 ч. 36 м.
Битрейт : 49 бит/сек
ElementCount : 1222
Размер потока : 35,3 Кбайт (0%)
Заголовок : английские
Язык : English
Default : Нет
Forced : Нет

Меню
00:00:00.000 : en:01
00:09:11.708 : en:02
00:15:05.042 : en:03
00:21:50.750 : en:04
00:31:06.500 : en:05
00:37:10.875 : en:06
00:45:11.875 : en:07
00:55:43.708 : en:08
01:04:46.875 : en:09
01:15:06.458 : en:10
01:25:43.542 : en:11
01:35:04.167 : en:12
pb.wtf



Скачать Дикий поиск через торрент https://a.radikal.ru/a39/1904/96/6cf63d1ee7f4.jpg Скачать фильм Дикий поиск через торрент бесплантно в хорошем качестве О фильме: . Убита торговка оружием. Без присмотра остаётся её маленькая дочь Ка Ка, которая видела убийцу своей матери, крутого ... 5 10 1
Info! Золотая раздача, скачанное не засчитывается.
Торрент: Зарегистрирован [2019-04-23 07:19] · скачан: 1 раз
Статус: √ проверено
Размер: 5.21 GB
Как cкачать? Как скачать Дикий поиск через торрент | qTorrent

% Раздел Тема Автор DL S | L
Азиатские фильмы [ 11.98 GB ] Дикий поиск / Ban wo chuang tian ya [1989 BDRip 1080p by msltel] AVO msltel Скачать
1 | 0


>> Регистрируемся здесь <<






Отзывы и комментарии о схеме читаем и пишем здесь: ---> Отзывы и комментарии о схеме

Новые благодарочки в телеграм довольных пользователей:
скриншот   скриншот   скриншот   скриншот   скриншот
    Дорогой пользователь! Огромная просьба, поблагодарите релизера, оцените раздачу и оставьте свои комментарий, если Вы скачали Дикий поиск через торрент бесплатно! Внесите свою лепту в развитие PiratBit!
    Комментировать посты могут только пользователи прошедшие не сложную регистрацию
    Показать сообщения:    

    Дикий поиск через торрент
    Скачать бесплатно Дикий поиск
    Дикий поиск скачать торрент
    Дикий поиск смотреть онлайн
    Cкачать фильм Дикий поиск бесплатно
    Дикий поиск скачать торрент в хорошем качестве
    Дикий поиск смотреть онлайн бесплатно в хорошем качестве


    Вы не можете начинать темы
    Вы не можете отвечать на сообщения
    Вы не можете редактировать свои сообщения
    Вы не можете удалять свои сообщения
    Вы не можете голосовать в опросах
    Вы не можете прикреплять файлы к сообщениям
    Вы можете скачивать файлы