Доктор Стрэндж

Лицензия

Добыча

Дубляж

Дом дракона

1 сезон

Тор

Дубляж

В эфире

Дубляж

Там, где раки поют

MVO

Властелин колец

1 сезон

GLOBAL

pack

Рекомендуем

30

Пиратка

ВАЖНО

ВАЖНО

Ghostwire

Пиратка

jed

RePack

nioh2

RePack

RDR2

RePack

NEED FOR SPEED™ PAYBACK

RePack

скачать торрент

Кинопоиск HD

Острые козырьки 6 сезон

6 сезон

FAR CRY 6

RePack

скачать торрент

Лицензия

скачать торрент

MVO

1

1 сезон

скачать торрент

1 сезон

скачать торрент

Лицензия

  

Ямасонг: Марш Пустых / Yamasong: March of the Hollows (Сэм Кодзи Хейл) [2017, Мультфильм, фэнтези, приключения, WEB-DL 720p] MVO ["Синема УС"]

Ямасонг: Марш Пустых через торрент pb.wtf

Раздают: 1 [ 0 KB/s ]
Размер: 4.03 GB | Добавлен: 3 года 7 мес. назад | Торрент скачан:104 раза
Смотреть онлайн | Скачать   

25-04-2019 17:10 Ямасонг: Марш Пустых Скачать торрент  

Ямасонг: Марш Пустых / Yamasong: March of the Hollows Год выпуска: 2017
Страна: США
Жанр: Мультфильм, фэнтези, приключения
Продолжительность: 01:41:43
Перевод: Любительский (многоголосый) | "Синема УС"
Субтитры: отсутствуют

Режиссер: Сэм Кодзи Хейл

rating семпл

В ролях: Эбигейл Бреслин, Натан Филлион, Фрида Пинто, Вупи Голдберг, Эдвард Аснер, Малкольм МакДауэлл, Питер Уэллер, Брюс Дэвисон, Джордж Такей

Описание: Механическая девочка и воин клана черепах вместе с кучкой отщепенцев пытаются противостоять Яри, Королеве Пустых, которая планирует захватить мир и превратить всех его жителей в механических слуг. Их единственная надежда - это найти реликвию из легенд, которая может снова заточить армию Пустых в лунную тюрьму.

Качество: WEB-DL 720p
Формат: MKV

Видео: h.264,5 289 Кбит/с, 1280x692
Аудио#1: Русский, (AC3, 2 ch, 384 Кбит/с)
скриншот  скриншот  скриншот  

Общее
Уникальный идентификатор : 232575113379015387276081130252066102432 (0xAEF856678D83CF68928369CCF9A01CA0)
Полное имя : D:\Yamasong.March.Of.The.Hollows.2017.P.WEB-DL.72Op.mkv
Формат : Matroska
Версия формата : Version 2
Размер файла : 4,03 Гбайт
Продолжительность : 1 ч. 41 м.
Режим общего битрейта : Переменный
Общий поток : 5675 Кбит/сек
Дата кодирования : UTC 2019-04-25 00:37:19
Программа кодирования : mkvmerge v8.3.0 ('Over the Horizon') 64bit
Библиотека кодирования : libebml v1.3.1 + libmatroska v1.4.2

Видео
Идентификатор : 1
Формат : AVC
Формат/Информация : Advanced Video Codec
Профиль формата : [email protected]
Параметр CABAC формата : Да
Параметр RefFrames формата : 4 кадра
Идентификатор кодека : V_MPEG4/ISO/AVC
Продолжительность : 1 ч. 41 м.
Вид битрейта : Переменный
Битрейт : 5289 Кбит/сек
Максимальный битрейт : 6000 Кбит/сек
Ширина : 1280 пикселей
Высота : 692 пикселя
Соотношение сторон : 1,85:1
Режим частоты кадров : Постоянный
Частота кадров : 23,976 (24000/1001) кадра/сек
Стандарт вещания : Component
Цветовое пространство : YUV
Субдискретизация насыщенности : 4:2:0
Битовая глубина : 8 бит
Тип развёртки : Прогрессивная
Бит/(Пиксели*Кадры) : 0.244
Размер потока : 3,68 Гбайт (91%)
Default : Да
Forced : Нет
Цветовой диапазон : Limited
Основные цвета : BT.709
Характеристики трансфера : BT.709
Коэффициенты матрицы : BT.709

Аудио
Идентификатор : 2
Формат : AC-3
Формат/Информация : Audio Coding 3
Расширение режима : CM (complete main)
Параметр Endianness формата : Big
Идентификатор кодека : A_AC3
Продолжительность : 1 ч. 41 м.
Вид битрейта : Постоянный
Битрейт : 384 Кбит/сек
Каналы : 2 канала
Расположение каналов : Front: L R
Частота : 48,0 КГц
Частота кадров : 31,250 кадров/сек (1536 spf)
Метод сжатия : С потерями
Размер потока : 279 Мбайт (7%)
Default : Да
Forced : Нет




Скачать Ямасонг: Марш Пустых через торрент https://d.radikal.ru/d13/1904/af/ede0118f4311.jpg Скачать, смотреть онлайн Ямасонг: Марш Пустых бесплантно в хорошем качестве Описание: Механическая девочка и воин клана черепах вместе с кучкой отщепенцев пытаются противостоять Яри, Королеве Пустых, которая ... 10 10 5
Торрент: Зарегистрирован [2019-04-25 17:10] · скачан: 104 раз
Статус: T временная
Размер: 4.03 GB
Как cкачать? Как скачать Ямасонг: Марш Пустых через торрент | UTorrent

% Раздел Тема Автор DL S | L
T Фильмы (мультфильмы) cо спонсором показа (Новинки AVI/MKV) [ 1.46 GB ] Ямасонг: Марш Пустых / Yamasong: March of the Hollows | MVO | DLRip bober100 Скачать
1 | 0

28-11-2019 20:33  


Отключить вcю реклaмy на сайте, в т.ч. и в плеере онлайн просмотра!

    Дорогой пользователь! Огромная просьба, поблагодарите релизера, оцените раздачу и оставьте свои комментарий, если Вы скачали Ямасонг: Марш Пустых через торрент бесплатно!!
    Комментировать посты могут только пользователи прошедшие не сложную регистрацию
    Показать сообщения:    


    Ямасонг: Марш Пустых через торрент
    Скачать бесплатно Ямасонг: Марш Пустых
    Ямасонг: Марш Пустых скачать торрент
    Ямасонг: Марш Пустых смотреть онлайн
    Cкачать фильм Ямасонг: Марш Пустых бесплатно
    Ямасонг: Марш Пустых скачать торрент в хорошем качестве
    Ямасонг: Марш Пустых смотреть онлайн бесплатно в хорошем качестве
    Вы не можете начинать темы
    Вы не можете отвечать на сообщения
    Вы не можете редактировать свои сообщения
    Вы не можете удалять свои сообщения
    Вы не можете голосовать в опросах
    Вы не можете прикреплять файлы к сообщениям
    Вы можете скачивать файлы
    Ямасонг: Марш Пустых / Yamasong: March of the Hollows [2017, Мультфильм, фэнтези, приключения, WEB-DL 720p] MVO ["Синема УС"] смотреть онлайн, скачать торрент picoco.icu