Мега распродажа FORZA HORIZON 4 ULTIMATE+ВСЕ DLC+ОНЛАЙН всего за 499р. 349 руб. (супер цена). Внимание количество ограничено!!!

Лицензия

30

iTunes

мы

iTunes

1

1 сезон

Чернобыль

1 сезон

Ральф против интернета

MVO

Покемон. Детектив Пикачу

8 сезон

Игра престолов

iTunes

1+1

ИГРА 18+

pack

ВАЖНО

!!Акция!!

Alien_RageХит недели

RePack

Resident Evil 21
pack

RePack

Metro:Exodus

!!Акция!!

Alien_Rage

RePack

fifa19

RePack

Assassins Creed: Odyssey

RePack

NEED FOR SPEED™ PAYBACK

3 сезон

9 сезон

Бесстыжие 9 сезон

Все сериалы

все сериалы на PB.wtf

RePack

FAR CRY 5
Ребята, катастрофически не хватает 2730р. для оплаты серверов за МАЙ (всвязи с блокировками трафик упал в 3 раза), 1-2р., выручайте.
  

Большой кошачий побег / Mao yu tao hua yuan / Cats and Peachtopia (Гэри Ван) [2018, мультфильм, приключения, комедия, семейный, WEB-DL 1080p] DUB [iTunes] pb.wtf

Большой кошачий побег через торрент pb.wtf

Раздают: 20 [ 82 KB/s ]
Размер: 3.21 GB | Добавлен: 1 мес. 20 д. назад | Торрент скачан:363 раза
Скачать  

28-04-2019 17:31 Большой кошачий побег Скачать торрент  

Большой кошачий побег / Mao yu tao hua yuan / Cats and Peachtopia
Год выпуска: 2018
Страна: Китай
Жанр: мультфильм, приключения, комедия, семейный
Продолжительность: 01:23:21
Перевод: Дублированный | iTunes
Субтитры: отсутствуют

Режиссер: Гэри Ван

rating

В ролях:

Ян Яньдо, Эмиль Чау, Чэнь Линьшэн и др.

Описание:

Большинство домашних котов, как наш герой Пухляш, привыкли довольствоваться жизнью в теплой и уютной квартире. Но его сын, рыжий котенок Шустрик, не из таких. Ему вечно не сидится на месте, и он очень хочет путешествовать. Мечтая однажды отправиться в удивительную Долину Розовых Снов, он сооружает летательный аппарат и улетает на нем через окно. Ленивому и неповоротливому Пухляшу только и остается, что отправиться на его поиски вместе с другом волнистым попугаем, ведь жизнь большого города таит немало опасностей для маленького котенка. Всех троих впереди ждет немало приключений и важных открытий!

Качество: WEB-DL 1080p
Формат: MKV

Видео: MPEG-4 AVC, 5499 Кбит/с, 1920x806
Аудио: AC3, 6 ch, 384 kbps
скриншот  скриншот  скриншот  

Общее
Уникальный идентификатор : 209324602413587075108691171717902217493 (0x9D7A73B58529EE9C2174DA7BBE6BB115)
Полное имя : D:\Beg_Kotov_2018_WEBDL1080p_RG_NewMower.mkv
Формат : Matroska
Версия формата : Version 4 / Version 2
Размер файла : 3,21 Гбайт
Продолжительность : 1 ч. 23 м.
Общий поток : 5499 Кбит/сек
Дата кодирования : UTC 2019-04-28 09:20:35
Программа кодирования : mkvmerge v33.1.0 ('Primrose') 64-bit
Библиотека кодирования : libebml v1.3.7 + libmatroska v1.5.0

Видео
Идентификатор : 1
Формат : AVC
Формат/Информация : Advanced Video Codec
Профиль формата : High@L4
Параметр CABAC формата : Да
Параметр RefFrames формата : 4 кадра
Идентификатор кодека : V_MPEG4/ISO/AVC
Продолжительность : 1 ч. 23 м.
Битрейт : 5499 Кбит/сек
Ширина : 1920 пикселей
Высота : 806 пикселей
Соотношение сторон : 2,40:1
Режим частоты кадров : Постоянный
Частота кадров : 25,000 кадров/сек
Цветовое пространство : YUV
Субдискретизация насыщенности : 4:2:0
Битовая глубина : 8 бит
Тип развёртки : Прогрессивная
Бит/(Пиксели*Кадры) : 0.132
Размер потока : 2,92 Гбайт (91%)
Библиотека кодирования : x264 core 142
Настройки программы : cabac=1 / ref=3 / deblock=1:0:0 / analyse=0x3:0x113 / me=hex / subme=7 / psy=1 / psy_rd=1.00:0.00 / mixed_ref=1 / me_range=16 / chroma_me=1 / trellis=1 / 8x8dct=1 / cqm=0 / deadzone=21,11 / fast_pskip=1 / chroma_qp_offset=-2 / threads=36 / lookahead_threads=6 / sliced_threads=0 / nr=0 / decimate=1 / interlaced=0 / bluray_compat=0 / constrained_intra=0 / bframes=6 / b_pyramid=2 / b_adapt=1 / b_bias=0 / direct=1 / weightb=1 / open_gop=0 / weightp=2 / keyint=50 / keyint_min=26 / scenecut=0 / intra_refresh=0 / rc_lookahead=40 / rc=2pass / mbtree=1 / bitrate=5120 / ratetol=1.0 / qcomp=0.60 / qpmin=0 / qpmax=69 / qpstep=4 / cplxblur=20.0 / qblur=0.5 / vbv_maxrate=7680 / vbv_bufsize=20480 / nal_hrd=none / filler=0 / ip_ratio=1.40 / aq=1:1.00
Язык : Russian
Default : Да
Forced : Нет

Аудио
Идентификатор : 2
Формат : AC-3
Формат/Информация : Audio Coding 3
Расширение режима : CM (complete main)
Параметр Endianness формата : Big
Идентификатор кодека : A_AC3
Продолжительность : 1 ч. 23 м.
Вид битрейта : Постоянный
Битрейт : 384 Кбит/сек
Каналы : 6 каналов
Расположение каналов : Front: L C R, Side: L R, LFE
Частота : 48,0 КГц
Частота кадров : 31,250 кадров/сек (1536 spf)
Метод сжатия : С потерями
Размер потока : 229 Мбайт (7%)
Язык : Russian
Default : Да
Forced : Нет

pb.wtf



Скачать Большой кошачий побег через торрент https://b.radikal.ru/b33/1904/b1/0faf0aa4a625.jpg Скачать фильм Большой кошачий побег через торрент бесплантно в хорошем качестве Описание: Большинство домашних котов, как наш герой Пухляш, привыкли довольствоваться жизнью в теплой и уютной квартире. Но его сын, рыжий ... 10 10 8
Торрент: Зарегистрирован [2019-04-28 17:31] · скачан: 363 раз
Статус: √ проверено
Размер: 3.21 GB
Как cкачать? Как скачать Большой кошачий побег через торрент | qTorrent

% Раздел Тема Автор DL S | L
Иностранные мультфильмы [ 1.46 GB ] Большой кошачий побег / Mao yu tao hua yuan / Cats and Peachtopia [2018 мультфильм WEB-DLRip] [Локализованная версия] bober100 Скачать
13 | 0


>> Регистрируемся здесь <<






Отзывы и комментарии о схеме читаем и пишем здесь: ---> Отзывы и комментарии о схеме

Новые благодарочки в телеграм довольных пользователей:
скриншот   скриншот   скриншот   скриншот   скриншот
    Дорогой пользователь! Огромная просьба, поблагодарите релизера, оцените раздачу и оставьте свои комментарий, если Вы скачали Большой кошачий побег через торрент бесплатно! Внесите свою лепту в развитие PiratBit!
    Комментировать посты могут только пользователи прошедшие не сложную регистрацию
    Показать сообщения:    

    Большой кошачий побег через торрент
    Скачать бесплатно Большой кошачий побег
    Большой кошачий побег скачать торрент
    Большой кошачий побег смотреть онлайн
    Cкачать фильм Большой кошачий побег бесплатно
    Большой кошачий побег скачать торрент в хорошем качестве
    Большой кошачий побег смотреть онлайн бесплатно в хорошем качестве


    Вы не можете начинать темы
    Вы не можете отвечать на сообщения
    Вы не можете редактировать свои сообщения
    Вы не можете удалять свои сообщения
    Вы не можете голосовать в опросах
    Вы не можете прикреплять файлы к сообщениям
    Вы можете скачивать файлы