Доктор Стрэндж

Лицензия

Добыча

Дубляж

Дом дракона

1 сезон

Тор

Дубляж

В эфире

Дубляж

Там, где раки поют

MVO

Властелин колец

1 сезон

GLOBAL

pack

Рекомендуем

30

Пиратка

ВАЖНО

ВАЖНО

Ghostwire

Пиратка

jed

RePack

nioh2

RePack

RDR2

RePack

NEED FOR SPEED™ PAYBACK

RePack

скачать торрент

Кинопоиск HD

Острые козырьки 6 сезон

6 сезон

FAR CRY 6

RePack

скачать торрент

Лицензия

скачать торрент

MVO

1

1 сезон

скачать торрент

1 сезон

скачать торрент

Лицензия

  

Бухта Дьявола / Devil's Cove (Эрик Лундмарк) [2018, Триллер, WEB-DL 720p] MVO ["Синема УС"]

Бухта Дьявола через торрент pb.wtf

Размер: 2.77 GB | Добавлен: 3 года 7 мес. назад | Торрент скачан:19 раз
Смотреть онлайн | Скачать   

29-04-2019 04:59 Бухта Дьявола Скачать торрент  

Бухта Дьявола / Devil's CoveГод выпуска: 2018
Страна: США
Жанр: Триллер
Продолжительность: 01:22:09
Перевод: Любительский (многоголосый) | "Синема УС"
Субтитры: отсутствуют

Режиссер: Эрик Лундмарк

rating семпл

В ролях:

Минди де Лэйси, Майкл Кийес, Хлоя Трайкос, Кэмерон Барнс, Луанн Ферналд, Роми Теперсон, Кент Хэтч, Ребекка Тюдор, Сэмми Андерсон, Асгер Фолманн

Описание:

Любовь между двумя девушками стала причиной жестокого убийства, из-за которого они вынуждены пуститься в бега.

Качество: WEB-DL 720p
Формат: MKV

Видео: h.264,4 433 Кбит/с, 1280x720
Аудио: Русский, (AC3, 2 ch, 384 Кбит/с)
скриншот  скриншот  скриншот  

Общее
Уникальный идентификатор : 217479615282616883197171278763386471602 (0xA39D0CE2DD07D5169C0493C8230C04B2)
Полное имя : D:\DevilsCove.2018.P.WEB-DL.72Op.mkv
Формат : Matroska
Версия формата : Version 2
Размер файла : 2,77 Гбайт
Продолжительность : 1 ч. 22 м.
Режим общего битрейта : Переменный
Общий поток : 4819 Кбит/сек
Дата кодирования : UTC 2019-04-28 19:34:22
Программа кодирования : mkvmerge v8.3.0 ('Over the Horizon') 64bit
Библиотека кодирования : libebml v1.3.1 + libmatroska v1.4.2

Видео
Идентификатор : 1
Формат : AVC
Формат/Информация : Advanced Video Codec
Профиль формата : [email protected]
Параметр CABAC формата : Да
Параметр RefFrames формата : 4 кадра
Идентификатор кодека : V_MPEG4/ISO/AVC
Продолжительность : 1 ч. 22 м.
Вид битрейта : Переменный
Битрейт : 4433 Кбит/сек
Максимальный битрейт : 5000 Кбит/сек
Ширина : 1280 пикселей
Высота : 720 пикселей
Соотношение сторон : 16:9
Режим частоты кадров : Постоянный
Частота кадров : 23,976 (24000/1001) кадра/сек
Стандарт вещания : Component
Цветовое пространство : YUV
Субдискретизация насыщенности : 4:2:0
Битовая глубина : 8 бит
Тип развёртки : Прогрессивная
Бит/(Пиксели*Кадры) : 0.196
Размер потока : 2,49 Гбайт (90%)
Default : Да
Forced : Нет
Цветовой диапазон : Limited
Основные цвета : BT.709
Характеристики трансфера : BT.709
Коэффициенты матрицы : BT.709

Аудио
Идентификатор : 2
Формат : AC-3
Формат/Информация : Audio Coding 3
Расширение режима : CM (complete main)
Параметр Endianness формата : Big
Идентификатор кодека : A_AC3
Продолжительность : 1 ч. 22 м.
Вид битрейта : Постоянный
Битрейт : 384 Кбит/сек
Каналы : 2 канала
Расположение каналов : Front: L R
Частота : 48,0 КГц
Частота кадров : 31,250 кадров/сек (1536 spf)
Метод сжатия : С потерями
Размер потока : 226 Мбайт (8%)
Default : Да
Forced : Нет




Скачать Бухта Дьявола через торрент https://c.radikal.ru/c41/1904/0a/ae7071fb473e.jpg Скачать, смотреть онлайн Бухта Дьявола бесплантно в хорошем качестве Описание: Любовь между двумя девушками стала причиной жестокого убийства, из-за которого они вынуждены пуститься в ... 10 10 2
Торрент: Зарегистрирован [2019-04-29 04:59] · скачан: 19 раз
Статус: T временная
Размер: 2.77 GB
Как cкачать? Как скачать Бухта Дьявола через торрент | UTorrent

% Раздел Тема Автор DL S | L
T Фильмы (мультфильмы) cо спонсором показа (Новинки AVI/MKV) [ 1.37 GB ] Бухта Дьявола / Devil's Cove | MVO | DLRip bober100 Скачать
1 | 0

28-11-2019 20:33  


Отключить вcю реклaмy на сайте, в т.ч. и в плеере онлайн просмотра!

    Дорогой пользователь! Огромная просьба, поблагодарите релизера, оцените раздачу и оставьте свои комментарий, если Вы скачали Бухта Дьявола через торрент бесплатно!!
    Комментировать посты могут только пользователи прошедшие не сложную регистрацию
    Показать сообщения:    


    Бухта Дьявола через торрент
    Скачать бесплатно Бухта Дьявола
    Бухта Дьявола скачать торрент
    Бухта Дьявола смотреть онлайн
    Cкачать фильм Бухта Дьявола бесплатно
    Бухта Дьявола скачать торрент в хорошем качестве
    Бухта Дьявола смотреть онлайн бесплатно в хорошем качестве
    Вы не можете начинать темы
    Вы не можете отвечать на сообщения
    Вы не можете редактировать свои сообщения
    Вы не можете удалять свои сообщения
    Вы не можете голосовать в опросах
    Вы не можете прикреплять файлы к сообщениям
    Вы можете скачивать файлы
    Бухта Дьявола / Devil's Cove [2018, Триллер, WEB-DL 720p] MVO ["Синема УС"] смотреть онлайн, скачать торрент picoco.icu