Доктор Стрэндж

Лицензия

Добыча

Дубляж

Дом дракона

1 сезон

Тор

Дубляж

В эфире

Дубляж

Там, где раки поют

MVO

Властелин колец

1 сезон

Deluxe

pack

Рекомендуем

30

Пиратка

ВАЖНО

ВАЖНО

Ghostwire

Пиратка

jed

RePack

nioh2

RePack

RDR2

RePack

NEED FOR SPEED™ PAYBACK

RePack

скачать торрент

Кинопоиск HD

Острые козырьки 6 сезон

6 сезон

FAR CRY 6

RePack

скачать торрент

Лицензия

скачать торрент

MVO

1

1 сезон

скачать торрент

1 сезон

скачать торрент

Лицензия

  

Кровная месть / Серии: 1-4 из 4 (Мирослав Малич) [2019, Мелодрама, WEB-DLRip]

Кровная месть через торрент pb.wtf

Размер: 2.25 GB | Добавлен: 3 года 7 мес. назад | Торрент скачан:88 раз
Смотреть онлайн | Скачать   

29-04-2019 19:01 Кровная месть Скачать торрент  

Кровная месть Год выпуска: 2019
Страна: Украина
Жанр: Мелодрама
Продолжительность: ~ 00:44:00 серия
Перевод: Не требуется
Субтитры: отсутствуют

Режиссер: Мирослав Малич



В ролях:

Александр Константинов, Виталий Салий, Александр Наумов, Станислав Боклан, Оксана Архангельская, Сергей Калантай, Ирина Антоненко, Всеволод Болдин, Анастасия Цымбалару

Описание:

Успешный, красивый, молодой Илья продает собственный дом и налаженный бизнес в Европе ради того, чтобы вернуться в небогатый постсоветский промышленный городок, где от него отказались в роддоме 27 лет назад. По иронии судьбы, в этом же городке в подростковом возрасте Илья потерял и своих приемных родителей. 15 лет он вынашивал план мести, ведь приемных отца и мать убили прямо у него на глазах. Прихватив с собой поддельные документы, чемодан под завязку набитый деньгами и друга юриста, Илья приезжает на родину. Воспользовавшись трудностями на заводе, который возглавляет главный враг Ильи и по совместительству его биологический отец Виктор Соболев, парень внедряется в руководство под видом инвестора. Там он знакомится со своим кровным братом Богданом и узнает, что они родились двойняшками, но Илью бросили из-за патологии в развитии, а Богдана оставили. Между ними сразу вспыхивает неприязнь – «залетный инвестор» лишает Богдана должности и даже занимает его кабинет. Но с большей силой конфликт разгорается тогда, когда Богдан узнает, что его невеста, дочь мэра Дина влюбилась в Илью. Беда в том, что и чувства Ильи к утонченной студентке консерватории тоже искренни, а ведь ее отец - сообщник Соболевых. Что же выберет Илья - месть или любовь? Смогут ли два брата понять друг друга и простить? И какую тайну предстоит узнать Илье, прежде чем совершить главный выбор в своей жизни?

Качество: WEB-DLRip
Формат: AVI

Видео: 720x400 (1.80:1), 25 fps, XviD build 73 ~1600 kbps avg, 0.222 bit/pixel
Аудио: 48.0 kHz, AC3 Dolby Digital, 2/0 (L,R) ch, ~ 192 kbps
скриншот  скриншот  скриншот  скриншот  

скриншот  скриншот  скриншот  скриншот  

General
Complete name : D:\Кровная месть. 2019.WEB-DLRip. Files-x\01. Кровная месть. 2019.WEB-DLRip. Files-x.avi
Format : AVI
Format/Info : Audio Video Interleave
File size : 578 MiB
Duration : 44 min 51 s
Overall bit rate : 1 802 kb/s
Writing application : VirtualDubMod 1.5.10.3 | www.virtualdub-fr.org || (build 2550/release)
Writing library : VirtualDubMod build 2550/release

Video
ID : 0
Format : MPEG-4 Visual
Format profile : Advanced [email protected]
Format settings : BVOP1 / Custom Matrix
Format settings, BVOP : 1
Format settings, QPel : No
Format settings, GMC : No warppoints
Format settings, Matrix : Custom
Codec ID : XVID
Codec ID/Hint : XviD
Duration : 44 min 51 s
Bit rate : 1 600 kb/s
Width : 720 pixels
Height : 400 pixels
Display aspect ratio : 16:9
Frame rate : 25.000 FPS
Color space : YUV
Chroma subsampling : 4:2:0
Bit depth : 8 bits
Scan type : Progressive
Compression mode : Lossy
Bits/(Pixel*Frame) : 0.222
Stream size : 513 MiB (89%)
Writing library : XviD 73

Audio
ID : 1
Format : AC-3
Format/Info : Audio Coding 3
Codec ID : 2000
Duration : 44 min 51 s
Bit rate mode : Constant
Bit rate : 192 kb/s
Channel(s) : 2 channels
Channel positions : Front: L R
Sampling rate : 48.0 kHz
Frame rate : 31.250 FPS (1536 SPF)
Bit depth : 16 bits
Compression mode : Lossy
Stream size : 61.6 MiB (11%)
Alignment : Split accross interleaves
Interleave, duration : 40 ms (1.00 video frame)
Interleave, preload duratio : 500 ms
Service kind : Complete Main




Скачать Кровная месть через торрент https://i110.fastpic.ru/big/2019/0429/5e/ae70abe011bcbf3bd316d7e89c4a785e.jpg Скачать, смотреть онлайн Кровная месть бесплантно в хорошем качестве Описание: Успешный, красивый, молодой Илья продает собственный дом и налаженный бизнес в Европе ради того, чтобы вернуться в небогатый ... 10 10 2
Торрент: Зарегистрирован [2019-04-29 19:01] · скачан: 88 раз
Статус: √ проверено
Размер: 2.25 GB
Как cкачать? Как скачать Кровная месть через торрент | UTorrent

28-11-2019 20:33  


Отключить вcю реклaмy на сайте, в т.ч. и в плеере онлайн просмотра!

    Дорогой пользователь! Огромная просьба, поблагодарите релизера, оцените раздачу и оставьте свои комментарий, если Вы скачали Кровная месть через торрент бесплатно!!
    Комментировать посты могут только пользователи прошедшие не сложную регистрацию
    Показать сообщения:    


    Кровная месть через торрент
    Скачать бесплатно Кровная месть
    Кровная месть скачать торрент
    Кровная месть смотреть онлайн
    Cкачать фильм Кровная месть бесплатно
    Кровная месть скачать торрент в хорошем качестве
    Кровная месть смотреть онлайн бесплатно в хорошем качестве
    Вы не можете начинать темы
    Вы не можете отвечать на сообщения
    Вы не можете редактировать свои сообщения
    Вы не можете удалять свои сообщения
    Вы не можете голосовать в опросах
    Вы не можете прикреплять файлы к сообщениям
    Вы можете скачивать файлы
    Кровная месть / Серии: 1-4 из 4 [2019, Мелодрама, WEB-DLRip] смотреть онлайн, скачать торрент picoco.icu