Ссылка на приватное зеркало нашего сайта всего за 1$. Внимание количество ограничено!!!

2 сезон

iTunes

1 сезон

1

iTunes

iTunes

iTunes

1 сезон

RePack

30

ИГРА 18+

pack

ВАЖНО

!!Акция!!

Alien_RageХит недели

RePack

MK11
pack

Забери бонус

RePack

jed

!!Акция!!

Alien_Rage

RePack

fifa19

RePack

Assassins Creed: Odyssey

RePack

NEED FOR SPEED™ PAYBACK

4 сезон

9 сезон

Бесстыжие 9 сезон

Все сериалы

все сериалы на PB.wtf

RePack

FAR CRY 5
  

Диана / Diane (Кент Джонс) [2018, драма, WEB-DL 720p] MVO ["Синема УС"] pb.wtf

Диана через торрент pb.wtf

Размер: 3.76 GB | Добавлен: 1 год 5 мес. назад | Торрент скачан:10 раз
Скачать  

01-05-2019 20:16 Диана Скачать торрент  

Диана / DianeГод выпуска: 2018
Страна: США
Жанр: драма
Продолжительность: 01:36:48
Перевод: Любительский (многоголосый) | "Синема УС"
Субтитры: отсутствуют

Режиссер: Кент Джонс

rating

В ролях: Мэри Кэй Плэйс, Джейк Лэси, Эстелл Парсонс, Андреа Мартин, Дирдри О'Коннелл, Глайннис О'Коннор, Джойс Ван Паттен, Керри Флэнеган, Филлис Соммервиль, Селия Кинэн-Болджер

Описание: Диана все свое время посвящает заботам о других и борется за жизнь сына-наркомана. Когда эти кусочки ее существования начинает пропадать, она встречается с воспоминаниями, которые предпочла бы забыть.

Качество: WEB-DL 720p
Формат: MKV

Видео: h.264,5 170 Кбит/с, 1280x688
Аудио#1: Русский, (AC3, 2 ch, 384 Кбит/с)
скриншот  скриншот  скриншот  

Общее
Уникальный идентификатор : 232199687873425195918670145396830643466 (0xAEB0087F7C61AF829CB344BE1B6C250A)
Полное имя : D:\Diane.2O18.P.WEB-DL.72Op.mkv
Формат : Matroska
Версия формата : Version 2
Размер файла : 3,76 Гбайт
Продолжительность : 1 ч. 36 м.
Режим общего битрейта : Переменный
Общий поток : 5556 Кбит/сек
Дата кодирования : UTC 2019-04-28 07:23:10
Программа кодирования : mkvmerge v8.3.0 ('Over the Horizon') 64bit
Библиотека кодирования : libebml v1.3.1 + libmatroska v1.4.2

Видео
Идентификатор : 1
Формат : AVC
Формат/Информация : Advanced Video Codec
Профиль формата : High@L4.1
Параметр CABAC формата : Да
Параметр RefFrames формата : 4 кадра
Идентификатор кодека : V_MPEG4/ISO/AVC
Продолжительность : 1 ч. 36 м.
Вид битрейта : Переменный
Битрейт : 5170 Кбит/сек
Максимальный битрейт : 6000 Кбит/сек
Ширина : 1280 пикселей
Высота : 688 пикселей
Соотношение сторон : 1,85:1
Режим частоты кадров : Постоянный
Частота кадров : 23,976 (24000/1001) кадра/сек
Стандарт вещания : Component
Цветовое пространство : YUV
Субдискретизация насыщенности : 4:2:0
Битовая глубина : 8 бит
Тип развёртки : Прогрессивная
Бит/(Пиксели*Кадры) : 0.240
Размер потока : 3,42 Гбайт (91%)
Default : Да
Forced : Нет
Цветовой диапазон : Limited
Основные цвета : BT.709
Характеристики трансфера : BT.709
Коэффициенты матрицы : BT.709

Аудио
Идентификатор : 2
Формат : AC-3
Формат/Информация : Audio Coding 3
Расширение режима : CM (complete main)
Параметр Endianness формата : Big
Идентификатор кодека : A_AC3
Продолжительность : 1 ч. 36 м.
Вид битрейта : Постоянный
Битрейт : 384 Кбит/сек
Каналы : 2 канала
Расположение каналов : Front: L R
Частота : 48,0 КГц
Частота кадров : 31,250 кадров/сек (1536 spf)
Метод сжатия : С потерями
Размер потока : 266 Мбайт (7%)
Default : Да
Forced : Нет

pb.wtf



Скачать Диана через торрент https://c.radikal.ru/c18/1905/9d/165856215384.jpg Скачать фильм Диана через торрент бесплантно в хорошем качестве Описание: Диана все свое время посвящает заботам о других и борется за жизнь сына-наркомана. Когда эти кусочки ее существования начинает ... 10 10 2
Торрент: Зарегистрирован [2019-05-01 20:16] · скачан: 10 раз
Статус: T временная
Размер: 3.76 GB
Как cкачать? Как скачать Диана через торрент | qTorrent

% Раздел Тема Автор DL S | L
Фильмы 2006-2008 [ 2.17 GB ] Мех: Воображаемый портрет Дианы Арбус / Fur: An Imaginary Portrait of Diane Arbus [2006 биография DVDRip-AVC] [MVO] killermax2013 Скачать
1 | 0
T Фильмы (мультфильмы) cо спонсором показа (Новинки AVI/MKV) [ 1.37 GB ] Диана / Diane [2018 WEB-DLRip] MVO ["Синема УС"] bober100 Скачать
1 | 0
Фильмы 2006-2008 [ 2.19 GB ] Мех: Воображаемый портрет Дианы Арбус / Fur: An Imaginary Portrait of Diane Arbus [2006 биография DVDRip Многоголосый] capral555 Скачать
1 | 0
Фильмы 2006-2008 [ 1.36 GB ] Мех: Воображаемый портрет Дианы Арбус / Fur: An Imaginary Portrait of Diane Arbus [2006 биография ... DVDRip] Тими Скачать
1 | 0

28-11-2019 20:33  

Отключить всю рекламу на сайте

    Дорогой пользователь! Огромная просьба, поблагодарите релизера, оцените раздачу и оставьте свои комментарий, если Вы скачали Диана через торрент бесплатно! Внесите свою лепту в развитие PiratBit!
    Комментировать посты могут только пользователи прошедшие не сложную регистрацию
    Показать сообщения:    

    Диана через торрент
    Скачать бесплатно Диана
    Диана скачать торрент
    Диана смотреть онлайн
    Cкачать фильм Диана бесплатно
    Диана скачать торрент в хорошем качестве
    Диана смотреть онлайн бесплатно в хорошем качестве


    Вы не можете начинать темы
    Вы не можете отвечать на сообщения
    Вы не можете редактировать свои сообщения
    Вы не можете удалять свои сообщения
    Вы не можете голосовать в опросах
    Вы не можете прикреплять файлы к сообщениям
    Вы можете скачивать файлы