MEGA SALE -50% FORZA HORIZON 4 ULTIMATE+ВСЕ DLC+ОНЛАЙН всего за 599р. 299 руб. (супер цена). Внимание количество ограничено!!!

iTunes

1+1

iTunes

мы

iTunes

1

iTunes

Чернобыль

iTunes

Ральф против интернета

Лицензия

ПШазам

Лицензия

Игра престолов

Лицензия

30
pack

ВАЖНО

!!Акция!!

Alien_RageХит недели

RePack

Resident Evil 21

ИГРА 18+

pack

RePack

Metro:Exodus

!!Акция!!

Alien_Rage

RePack

fifa19

RePack

Assassins Creed: Odyssey

RePack

NEED FOR SPEED™ PAYBACK

3 сезон

9 сезон

Бесстыжие 9 сезон

Все сериалы

все сериалы на PB.wtf

RePack

FAR CRY 5
Ребята, катастрофически не хватает 7730р. для оплаты серверов за АВГУСТ (всвязи с блокировками трафик упал в 3 раза), 1-2р., выручайте.
  

Ковёр-самолёт / Hodja fra Pjort (Карстен Килерих) [2018 г., Мультфильм, BDRip (720p), Дубляж (iTunes)] pb.wtf

Ковёр-самолёт через торрент pb.wtf

Раздают: 3 [ 0 KB/s ]
Размер: 2.4 GB | Добавлен: 4 мес. 11 д. назад | Торрент скачан:191 раз
Скачать  

05-05-2019 12:24 Ковёр-самолёт Скачать торрент  

Ковёр-самолёт / Hodja fra Pjort
Год выпуска: 2018
Страна: Дания
Жанр: Мультфильм
Продолжительность: 01:21:03
Перевод: Дубляж (iTunes) +Датский
Субтитры: нет

Режиссер: Карстен Килерих

В ролях: Вибеке Дюхольм, Петер Фрёдин, Эрик Холми, Ребекка Ронде Килерих, Сонни Лэхи, Туре Линдхардт, Михаэль Зуков Мардорф, Сьюзи Пауэр, Биргитте Рааберг, Ларс Ранте

Описание: Главный герой растёт мечтательным мальчиком, который хочет увидеть мир. Его отец, смотря на жизнь куда более реалистично, настаивает, чтобы сын выбросил никчёмные мысли из головы и выучился на портного. Но мальчик не перестаёт мечтать о путешествиях в далекие края, и в один прекрасный день встречает купца ЭльФазу, который готов пожаловать ему ковер-самолёт, если мальчик отправится в большой город под властью султана, найдёт и возвратит ЭльФазе его маленькую внучку...

Качество: BDRip (720p)
Формат: MKV
Видео кодек: AVC
Аудио кодек: AC3-DTS
Видео: MPEG-4 AVC, (1280x536),2348 Кбит/с, 24.000 кадра/сек
Аудио#1: AC3, 6 ch,384 kbps (Rus) 48.0 KHz дублированный (iTunes)
Аудио#2: DTS, 6 ch,1509 kbps (Dan) 48.0 KHz Датский
скриншот   скриншот   скриншот  

Тип потока: Видео
Длительность: 01:21:03
Кодек: AVC
Кодек/описание: Advanced Video Codec
Кодек/профиль: High@L4.1
Кодек/ID: V_MPEG4/ISO/AVC
Кодек/CABAC: Yes
Кодек/ReFrames: 5 frames
Размеры изображения: 1280 x 536 (2.40:1)
Частота кадров: 24.000 fps
Частота кадров/тип: Constant
Размер потока: 1.28 GiB (53%)
Битрейт: 2 348 Kbps
Библиотека кодирования: x264 core 155 r2901 7d0ff22
Цветовое пространство: YUV
Тип развёртки: Progressive
Колориметрия: 4:2:0
Глубина: 8 bits
:
Тип потока: Звук #1
Язык: Russian
Длительность: 01:21:03.361
Кодек: AC-3
Кодек/описание: Audio Coding 3
Кодек/ID: A_AC3
Частота дискретизации: 48.0 KHz
Каналов: 6 channels
Битрейт: 384 Kbps
Битрейт/тип: Constant
Размер потока: 223 MiB (9%)
Глубина: 16 bits
Метод сжатия: Lossy
:
Тип потока: Звук #2
Язык: Danish
Длительность: 01:21:03.361
Кодек: DTS
Кодек/описание: Digital Theater Systems
Кодек/ID: A_DTS
Частота дискретизации: 48.0 KHz
Каналов: 6 channels
Битрейт: 1 509 Kbps
Битрейт/тип: Constant
Размер потока: 875 MiB (36%)
Глубина: 24 bits
Метод сжатия: Lossy

pb.wtf



Скачать Ковёр-самолёт через торрент http://pic1.kartinco.top/images/12/vt11r.jpg Скачать фильм Ковёр-самолёт через торрент бесплантно в хорошем качестве Описание: Главный герой растёт мечтательным мальчиком, который хочет увидеть мир. Его отец, смотря на жизнь куда более реалистично, ... 9.1 10 10
Info! Золотая раздача, скачанное не засчитывается.
Торрент: Зарегистрирован [2019-05-05 12:24] · скачан: 191 раз
Статус: √ проверено
Размер: 2.4 GB
Как cкачать? Как скачать Ковёр-самолёт через торрент | qTorrent

% Раздел Тема Автор DL S | L
Иностранные мультфильмы [ 1.42 GB ] Ковёр-самолёт / Hodja fra Pjort [2018 мультфильм BDRip] - Twi7ter Скачать
9 | 0
Зарубежные Мультфильмы (BDRip 1080p, 720p, Blu-ray, BD-Remux) [ 18.72 GB ] Ковёр-самолёт / Hodja fra Pjort [2018 Мультфильм BD Remux ()] Бумер Скачать
1 | 0
Зарубежные Мультфильмы (BDRip 1080p, 720p, Blu-ray, BD-Remux) [ 6.24 GB ] Ковёр-самолёт / Hodja fra Pjort [2018 Мультфильм BDRip ()] Бумер Скачать
3 | 0


>> Регистрируемся здесь <<






Отзывы и комментарии о схеме читаем и пишем здесь: ---> Отзывы и комментарии о схеме

Новые благодарочки в телеграм довольных пользователей:
скриншот   скриншот   скриншот   скриншот   скриншот

06-05-2019 16:46 Ковёр-самолёт Скачать торрент  

Мультяшники козу не разу не видели. 2 вымя. Всю жизнь пастух и доярка.pb.wtf



    Дорогой пользователь! Огромная просьба, поблагодарите релизера, оцените раздачу и оставьте свои комментарий, если Вы скачали Ковёр-самолёт через торрент бесплатно! Внесите свою лепту в развитие PiratBit!
    Комментировать посты могут только пользователи прошедшие не сложную регистрацию
    Показать сообщения:    

    Ковёр-самолёт через торрент
    Скачать бесплатно Ковёр-самолёт
    Ковёр-самолёт скачать торрент
    Ковёр-самолёт смотреть онлайн
    Cкачать фильм Ковёр-самолёт бесплатно
    Ковёр-самолёт скачать торрент в хорошем качестве
    Ковёр-самолёт смотреть онлайн бесплатно в хорошем качестве


    Вы не можете начинать темы
    Вы не можете отвечать на сообщения
    Вы не можете редактировать свои сообщения
    Вы не можете удалять свои сообщения
    Вы не можете голосовать в опросах
    Вы не можете прикреплять файлы к сообщениям
    Вы можете скачивать файлы