Всегда рабочее зеркало без VPN и Proxy просто перед .vidak.icu напиши любое слово или цифру, Пример http://6tap.vidak.icu

MVO

MVO

1 сезон

1

1 сезон

iTunes

1 сезон

13

1 сезон

Deluxe

pack

Рекомендуем

Repack

30

ВАЖНО

RePack

MK11

RePack

jed

RePack

fifa19

RePack

RDR2

RePack

NEED FOR SPEED™ PAYBACK

Кинопоиск HD

6 сезон

 Острые козырьки 6 сезон

Все сериалы

все сериалы на PB.wtf

RePack

FAR CRY 5
  
Magnet ссылка

Наша планета / Our Planet Сезон: 1 / Серии: 1-8 из 8 [2019, документальный, HDR, HEVC, WEBRip 1080p] [VO] (TVShows) pb.wtf

Наша планета через торрент pb.wtf

Качают: 1 [ 0 KB/s ]
Размер: 43.61 GB | Добавлен: 3 года 2 мес. назад | Торрент скачан:114 раз
Смотреть онлайн Наша планета | Скачать    Ребята, помогите собрать деньги на оплату серверов!!!

07-05-2019 09:25 Наша планета Скачать торрент  

Наша планета / Our Planet

Год выпуска: 2019
Страна: США
Студия: Silverback Films
Жанр: документальный
Продолжительность: 00:50:00
Перевод: Профессиональный (одноголосый закадровый) TVShows
субтитры: русские, английские

Режиссер: Адам Чапман / Adam Chapman

В ролях: Дэвид Аттенборо

Описание: Сериал от создателей "Планеты Земля" отправляет зрителей в беспрецедентное путешествие по самым ценным природным местам обитания в мире. Испытайте естественную красоту нашей планеты и изучите, как изменение климата влияет на все живые существа в этом амбициозном документальном фильме впечатляющего масштаба.



Тип релиза: WEB-DL 1080p
Контейнер: MKV
Видео: HEVC, HDR, 1920x1080 (16:9), ~5500 kbps, 23,976 fps
Аудио 1: Русский, AC3, 6 ch, 48 kHz, 384 kbps
Аудио 2: Английский, E-AC3 + Atmos, 6 ch, 48 kHz, 768 kbps
Полное имя                               : D:\RELEASE\Our.Planet.2019.S01.1080p.WEB-DL.HDR.HEVC.Rus.Eng.EniaHD\Our.Planet.2019.S01E01.One.Planet.1080p.WEB-DL.HDR.HEVC.Rus.Eng.EniaHD.mkv
Формат : Matroska
Версия формата : Version 4
Размер файла : 2,26 Гбайт
Продолжительность : 49 м. 49 с.
Общий поток : 6490 Кбит/сек
Дата кодирования : UTC 2019-04-05 15:37:30
Программа кодирования : mkvmerge v32.0.0 ('Astral Progressions') 32-bit
Библиотека кодирования : libebml v1.3.7 + libmatroska v1.5.0
Обложка : Yes
Attachments : cover.jpg

Видео
Идентификатор : 1
Формат : HEVC
Формат/Информация : High Efficiency Video Coding
Коммерческое название : HDR10
Профиль формата : Main [email protected]@Main
Идентификатор кодека : V_MPEGH/ISO/HEVC
Продолжительность : 49 м. 27 с.
Битрейт : 5374 Кбит/сек
Ширина : 1920 пикселей
Высота : 1080 пикселей
Соотношение сторон : 16:9
Режим частоты кадров : Постоянный
Частота кадров : 23,976 (24000/1001) кадра/сек
Цветовое пространство : YUV
Субдискретизация насыщенности : 4:2:0 (Type 2)
Битовая глубина : 10 бит
Бит/(Пиксели*Кадры) : 0.108
Размер потока : 1,86 Гбайт (82%)
Заголовок : HEVC, HDR 1080p
Язык : English
Default : Да
Forced : Нет
Цветовой диапазон : Limited
Основные цвета : BT.2020
Характеристики трансфера : PQ
Коэффициенты матрицы : BT.2020 non-constant
MasteringDisplay_ColorPrimaries : Display P3
MasteringDisplay_Luminance : min: 0.0001 cd/m2, max: 1000 cd/m2
MaxCLL : 1506 cd/m2
MaxFALL : 210 cd/m2

Аудио #1
Идентификатор : 2
Формат : AC-3
Формат/Информация : Audio Coding 3
Коммерческое название : Dolby Digital
Идентификатор кодека : A_AC3
Продолжительность : 49 м. 49 с.
Вид битрейта : Постоянный
Битрейт : 384 Кбит/сек
Каналы : 6 каналов
Channel layout : L R C LFE Ls Rs
Частота : 48,0 КГц
Частота кадров : 31,250 кадров/сек (1536 SPF)
Битовая глубина : 16 бит
Метод сжатия : С потерями
Размер потока : 137 Мбайт (6%)
Заголовок : AC3 5.1 @ 384 kbps - VO, APK-TV Studio
Язык : Russian
ServiceKind/String : Complete Main
Default : Да
Forced : Нет

Аудио #2
Идентификатор : 3
Формат : E-AC-3 JOC
Формат/Информация : Enhanced AC-3 with Joint Object Coding
Коммерческое название : Dolby Digital Plus with Dolby Atmos
Идентификатор кодека : A_EAC3
Продолжительность : 49 м. 49 с.
Вид битрейта : Постоянный
Битрейт : 768 Кбит/сек
Каналы : 6 каналов
Channel layout : L R C LFE Ls Rs
Частота : 48,0 КГц
Частота кадров : 31,250 кадров/сек (1536 SPF)
Метод сжатия : С потерями
Размер потока : 274 Мбайт (12%)
Заголовок : E-AC3 + Atmos 5.1 @ 768 kbps - Original
Язык : English
ServiceKind/String : Complete Main
Default : Нет
Forced : Нет
Complexity index : 16
Number of dynamic objects : 15
Bed channel count : 1 канал
Bed channel configuration : LFE

Текст #1
Идентификатор : 4
Формат : UTF-8
Идентификатор кодека : S_TEXT/UTF8
Идентификатор кодека/Информация : UTF-8 Plain Text
Продолжительность : 49 м. 11 с.
Битрейт : 0 бит/сек
ElementCount : 4
Размер потока : 289 байт (0%)
Заголовок : Forced
Язык : Russian
Default : Да
Forced : Да

Текст #2
Идентификатор : 5
Формат : UTF-8
Идентификатор кодека : S_TEXT/UTF8
Идентификатор кодека/Информация : UTF-8 Plain Text
Продолжительность : 49 м. 11 с.
Битрейт : 61 бит/сек
ElementCount : 315
Размер потока : 22,3 Кбайт (0%)
Заголовок : Full
Язык : Russian
Default : Нет
Forced : Нет

Текст #3
Идентификатор : 6
Формат : UTF-8
Идентификатор кодека : S_TEXT/UTF8
Идентификатор кодека/Информация : UTF-8 Plain Text
Продолжительность : 49 м. 11 с.
Битрейт : 42 бит/сек
ElementCount : 434
Размер потока : 15,2 Кбайт (0%)
Заголовок : Full SDH
Язык : English
Default : Нет
Forced : Нет
скриншот  скриншот  скриншот  
Когда раздача ведётся путём добавления новых серий, при каждом добавлении создётся новый торрент. Чтобы начать докачку новой серии, пользователям необходимо сделать следующее:
(1) остановить скачивание,
(2) удалить старый торрент у себя из клиента (старые серии удалять не надо),
(3) скачать новый торрент и запустить его у себя в клиенте вместо старого, при этом указать клиенту путь в старую папку, куда и должно происходить скачивание новых серий.
Ваш клиент при этом должен произвести хеширование (проверку) старой папки (если не производит сам - помогите ему сделать это), и будет докачивать только те серии, которых у вас ещё нет. Старые серии при этом не удаляются, а продолжают раздаваться!
Eсли вы уже удалили старые серии, то предотвратить повторную закачку старых серий можно, отжав галочку в соответсвующих местах при запуске нового торрента. По возможности, желательно не удалять старые серии как можно дольше, чтобы релизёр не столько продолжал раздавать старые серии, а смог сконцентрироваться на новых.
pb.wtf



Скачать Наша планета через торрент https://funkyimg.com/i/2SV95.jpg Скачать, смотреть онлайн Наша планета бесплантно в хорошем качестве Описание: Сериал от создателей "Планеты Земля" отправляет зрителей в беспрецедентное путешествие по самым ценным природным местам обитания ... 10 10 6
Info! Золотая раздача, скачанное не засчитывается.
Торрент: Зарегистрирован [2019-05-16 17:21] · скачан: 114 раз
Статус: √ проверено
Размер: 43.61 GB
Как cкачать? Как скачать Наша планета через торрент | UTorrent

% Раздел Тема Автор DL S | L
Научно-популярные фильмы [ 119.92 GB ] Наша планета / Our Planet / Сезон: 1 / Серии: 1-8 из 8 [2019 документальный UHD WEBRip 2160p] [SDR] VO [АРК-ТВ Studio] sheker187 Скачать
1 | 0

28-11-2019 20:33  

Отключить вcю реклaмy на сайте

    Дорогой пользователь! Огромная просьба, поблагодарите релизера, оцените раздачу и оставьте свои комментарий, если Вы скачали Наша планета через торрент бесплатно!
    Комментировать посты могут только пользователи прошедшие не сложную регистрацию
    Показать сообщения:    

    Наша планета через торрент
    Скачать бесплатно Наша планета
    Наша планета скачать торрент
    Наша планета смотреть онлайн
    Cкачать фильм Наша планета бесплатно
    Наша планета скачать торрент в хорошем качестве
    Наша планета смотреть онлайн бесплатно в хорошем качестве


    Вы не можете начинать темы
    Вы не можете отвечать на сообщения
    Вы не можете редактировать свои сообщения
    Вы не можете удалять свои сообщения
    Вы не можете голосовать в опросах
    Вы не можете прикреплять файлы к сообщениям
    Вы можете скачивать файлы