MEGA SALE -50% FORZA HORIZON 4 ULTIMATE+ВСЕ DLC+ОНЛАЙН всего за 599р. 299 руб. (супер цена). Внимание количество ограничено!!!

iTunes

1+1

iTunes

мы

iTunes

1

iTunes

Чернобыль

iTunes

Ральф против интернета

Лицензия

ПШазам

Лицензия

Игра престолов

Лицензия

30
pack

ВАЖНО

!!Акция!!

Alien_RageХит недели

RePack

Resident Evil 21

ИГРА 18+

pack

RePack

Metro:Exodus

!!Акция!!

Alien_Rage

RePack

fifa19

RePack

Assassins Creed: Odyssey

RePack

NEED FOR SPEED™ PAYBACK

3 сезон

9 сезон

Бесстыжие 9 сезон

Все сериалы

все сериалы на PB.wtf

RePack

FAR CRY 5
Ребята, катастрофически не хватает 7730р. для оплаты серверов за АВГУСТ (всвязи с блокировками трафик упал в 3 раза), 1-2р., выручайте.
  

Победители / Серии: 1- 10 из 10 / (Ангелина Никонова, Александр Галин) [2019 г., Драма, детектив, SATRip] pb.wtf

Победители через торрент pb.wtf

Размер: 6.4 GB | Добавлен: 4 мес. 4 д. назад | Торрент скачан:50 раз
Скачать  

13-05-2019 11:35 Победители Скачать торрент  

Победители
Год выпуска: 2019
Страна: Россия, Студия: ПЦ «Космос фильм»
Жанр: Драма, детектив
Продолжительность: 10 х ~ 00:48:00
Субтитры: нет

Режиссер: Ангелина Никонова, Александр Галин

В ролях: Никита Панфилов, Анна Чиповская, Юлия Пересильд, Никита Ефремов, Евгений Антропов, Александр Сетейкин, Алексей Павлов

Описание: 1895 год. На всю Россию гремит имя знаменитого столичного адвоката Николая Андронова, не проигравшего пока ни одного судебного процесса. Его друзья Виктор Роскевич и Михаил Заварзин – тоже блестящие адвокаты. Они побеждают в сложнейших уголовных делах, порой не только оправдывая своих подзащитных, но и изобличая истинных преступников прямо в зале суда. В тяжёлых ситуациях друзья-адвокаты всегда приходят на помощь друг другу. Они ещё достаточно молоды (старшему, Николаю Андронову, всего 35 лет). Все трое абсолютно разные, но каждый готов пожертвовать ради друзей очень многим… Их многолетняя дружба, и осознание того, что есть на кого рассчитывать в трудной ситуации – не в последнюю очередь, делает всех троих ПОБЕДИТЕЛЯМИ. И в профессиональной, и в личной жизни.

Качество: SATRip
Формат: AVI
Видео кодек: XviD
Аудио кодек: MP3
Видео: XviD, 1800 Кбит/с, 720x400
Аудио#1: МР3, 2 ch, 128 Кбит/с
скриншот   скриншот   скриншот   скриншот  

General
Complete name : H:\релизы.торрентфайл\Pobediteli.01.SATRip.[www.riperam.org].avi
Format : AVI
Format/Info : Audio Video Interleave
File size : 657 MiB
Duration : 47mn 12s
Overall bit rate : 1 945 Kbps
Writing application : VirtualDubMod 1.5.10.3 | www.virtualdub-fr.org || (build 2550/release)
Writing library : VirtualDubMod build 2550/release

Video
ID : 0
Format : MPEG-4 Visual
Format profile : Advanced Simple@L5
Format settings, BVOP : 2
Format settings, QPel : No
Format settings, GMC : No warppoints
Format settings, Matrix : Default (H.263)
Codec ID : XVID
Codec ID/Hint : XviD
Duration : 47mn 12s
Bit rate : 1 807 Kbps
Width : 720 pixels
Height : 400 pixels
Display aspect ratio : 16:9
Frame rate : 25.000 fps
Color space : YUV
Chroma subsampling : 4:2:0
Bit depth : 8 bits
Scan type : Progressive
Compression mode : Lossy
Bits/(Pixel*Frame) : 0.251
Stream size : 610 MiB (93%)
Writing library : XviD 1.2.1 (UTC 2008-12-04)

Audio
ID : 1
Format : MPEG Audio
Format version : Version 1
Format profile : Layer 3
Mode : Joint stereo
Mode extension : MS Stereo
Codec ID : 55
Codec ID/Hint : MP3
Duration : 47mn 12s
Bit rate mode : Constant
Bit rate : 128 Kbps
Channel(s) : 2 channels
Sampling rate : 48.0 KHz
Compression mode : Lossy
Stream size : 43.2 MiB (7%)
Alignment : Aligned on interleaves
Interleave, duration : 40 ms (1.00 video frame)
Interleave, preload duration : 504 ms
Writing library : LAME3.99r
Encoding settings : -m j -V 4 -q 9 -lowpass 17 -b 128

Внимание! Раздача ведётся путём добавления новых серий; при каждом добавлении создётся новый торрент. Чтобы начать докачку новой серии, пользователям необходимо сделать следующее:
  • Остановить скачивание,
  • Удалить старый торрент у себя из клиента (старые серии удалять не надо),
  • Скачать новый торрент и запустить его у себя в клиенте вместо старого, при этом указать клиенту путь в старую папку куда и должно происходить скачивание новых серий.
Ваш клиент при этом должен произвести хеширование (проверку) старой папки (если не производит сам - помогите ему сделать это), и будет докачивать только те серии которых у вас ещё нет. Старые серии при этом не удаляются, а продолжают раздаваться!

Eсли вы уже удалили старые серии, то предотвратить повторную закачку старых серий можно, отжав галочку в соответсвующих местах при запуске нового торрента. По возможности, желательно не удалять старые серии как можно дольше чтобы релизёр не столько продолжал раздавать старые серии, а смог сконцентрироваться на новых.
pb.wtf



Скачать Победители через торрент http://pic1.kartinco.top/images/12/qjqgi.jpg Скачать фильм Победители через торрент бесплантно в хорошем качестве Описание: 1895 год. На всю Россию гремит имя знаменитого столичного адвоката Николая Андронова, не проигравшего пока ни одного судебного ... 8.7 10 6
Торрент: Зарегистрирован [2019-05-17 14:05] · скачан: 50 раз
Статус: √ проверено
Размер: 6.4 GB
Как cкачать? Как скачать Победители через торрент | qTorrent

% Раздел Тема Автор DL S | L
Наши сериалы [ 6.83 GB ] Победители / Сезон: 1 / Серии: 1-10 из 10 [2019 исторический WEB-DLRip] bober100 Скачать
1 | 0
Наши сериалы [ 14.12 GB ] Победители / Сезон: 1 / Серии: 1-10 из 10 [2019 исторический WEB-DL 720p] bober100 Скачать
3 | 0
Наши сериалы [ 7.39 GB ] Победители / Сезон: 1 / Серии: 1-10 из 10 [2019 исторический WEBRip-AVC] bober100 Скачать
2 | 0
Наши сериалы [ 20.75 GB ] Победители / Сезон: 1 / Серии: 1-10 из 10 [2019 исторический WEB-DL 1080p] bober100 Скачать
1 | 0
Наши сериалы [ 7.36 GB ] Победители / Серии: 1-10 из 10 [2019 HDTVRip-AVC] aleksan55 Скачать
1 | 0


Последний раз редактировалось: oleg8 (2019-05-17 14:04), всего редактировалось 4 раз(а)


>> Регистрируемся здесь <<






Отзывы и комментарии о схеме читаем и пишем здесь: ---> Отзывы и комментарии о схеме

Новые благодарочки в телеграм довольных пользователей:
скриншот   скриншот   скриншот   скриншот   скриншот

14-05-2019 14:08 Победители Скачать торрент  

Релиз с рекламой?pb.wtf



14-05-2019 14:28 Победители Скачать торрент  

madrid83 писал(а):

Релиз с рекламой?

в 1и3 пятисекундная рекламка космос студии какой-то,во 2 и 4 нет.Заставка наверное - Студия: ПЦ «Космос фильм»pb.wtf



    Дорогой пользователь! Огромная просьба, поблагодарите релизера, оцените раздачу и оставьте свои комментарий, если Вы скачали Победители через торрент бесплатно! Внесите свою лепту в развитие PiratBit!
    Комментировать посты могут только пользователи прошедшие не сложную регистрацию
    Показать сообщения:    

    Победители через торрент
    Скачать бесплатно Победители
    Победители скачать торрент
    Победители смотреть онлайн
    Cкачать фильм Победители бесплатно
    Победители скачать торрент в хорошем качестве
    Победители смотреть онлайн бесплатно в хорошем качестве


    Вы не можете начинать темы
    Вы не можете отвечать на сообщения
    Вы не можете редактировать свои сообщения
    Вы не можете удалять свои сообщения
    Вы не можете голосовать в опросах
    Вы не можете прикреплять файлы к сообщениям
    Вы можете скачивать файлы