новый адрес
Ссылка на приватное зеркало всего за 1$. Внимание количество ограничено!!!

iTunes

1+1

iTunes

мы

WEB-DL

1

iTunes

Чернобыль

iTunes

Ральф против интернета

Лицензия

ПШазам

Лицензия

Оно 2

Лицензия

30
pack

Вам бонус

ВАЖНО

!!Акция!!

Alien_RageХит недели

RePack

Resident Evil 21

ИГРА 18+

pack

RePack

jed

!!Акция!!

Alien_Rage

RePack

fifa19

RePack

Assassins Creed: Odyssey

RePack

NEED FOR SPEED™ PAYBACK

3 сезон

9 сезон

Бесстыжие 9 сезон

Все сериалы

все сериалы на PB.wtf

RePack

FAR CRY 5
Ребята, катастрофически не хватает 1900р. для оплаты серверов за Октябрь (всвязи с блокировками трафик упал в 3 раза), 1-2р., выручайте.
  

Каин XVIII (Надежда Кошеверова, Михаил Шапиро) [1963, СССР, фэнтези, мелодрама, приключения, DVDRip-AVC от AVP Studio] pb.wtf

Каин XVIII через торрент pb.wtf

Раздают: 4 [ 0 KB/s ]
Размер: 1.09 GB | Добавлен: 6 мес. назад | Торрент скачан:17 раз
Скачать  

19-05-2019 10:21 Каин XVIII Скачать торрент  

Каин XVIII
Страна: СССР
Производство: Ленфильм

Жанр: фэнтези, мелодрама, приключения
Год выпуска: 1963
Продолжительность: 01:29:09

Перевод: Не требуется
Cубтитры: нет
Оригинальная аудиодорожка: русский

Режиссер: Надежда Кошеверова, Михаил Шапиро

В ролях:
Эраст Гарин, Лидия Сухаревская, Светлана Лощинина, Юрий Любимов, Бруно Фрейндлих, Михаил Жаров, Александр Демьяненко, Станислав Хитров, Александр Бениаминов, Рина Зелёная, Михаил Глузский, Борис Чирков, Георгий Вицин...
Об актёрах подробней

Описание:
Фильм по пьесе Е. Шварца "Голый король", переработанный впоследствии в сценарий «Два друга».
Бродячие музыканты Ян и Жан отправляются в страну короля Каина, полицейское государство, в котором предательство и подлость возведены в почет. Бродячий музыкант Ян влюбляется в принцессу, которую хотят отдать за старика-короля Каина из соседнего королевства, самодура и подлеца. Но любовь преодолевает преграды и соединяет сердца влюбленных.

Источник: DVD5 R5
Качество видео: DVDRip-AVC
Формат видео: MKV

Видео: 712->768x576 (4:3), 25,000 fps, H264 ~ 1555 kbps avg, 0.152 bit/pixel
Аудио: 48 kHz, Dolby Digital AC3 2.0, 192 kbps

Раздача от:
Общее
Полное имя : Kain.XVIII.1963.DVDRip-AVC_[New-team]_by_AVP_Studio.mkv
Формат : Matroska
Версия формата : Version 2
Размер файла : 1,09 Гбайт
Продолжительность : 1 ч. 29 м.
Общий поток : 1749 Кбит/сек
Дата кодирования : UTC 2019-05-14 19:03:21
Программа кодирования : mkvmerge v6.1.0 ('Old Devil') built on Mar 4 2013 09:10:42
Библиотека кодирования : libebml v1.3.0 + libmatroska v1.4.0

Видео
Идентификатор : 1
Формат : AVC
Формат/Информация : Advanced Video Codec
Профиль формата : High@L4.1
Настройки формата : CABAC / 10 Ref Frames
Параметр CABAC формата : Да
Параметр RefFrames формата : 10 кадров
Идентификатор кодека : V_MPEG4/ISO/AVC
Продолжительность : 1 ч. 29 м.
Битрейт : 1555 Кбит/сек
Ширина : 712 пикселей
Высота : 576 пикселей
Соотношение сторон : 4:3
Режим частоты кадров : Постоянный
Частота кадров : 25,000 кадров/сек
Цветовое пространство : YUV
Субдискретизация насыщенности : 4:2:0
Битовая глубина : 8 бит
Тип развёртки : Прогрессивная
Бит/(Пиксели*Кадры) : 0.152
Размер потока : 970 Мбайт (87%)
Библиотека кодирования : x264 core 157 r2935 545de2f
Настройки программы : cabac=1 / ref=10 / deblock=1:-2:-1 / analyse=0x3:0x113 / me=umh / subme=10 / psy=1 / psy_rd=1.00:0.00 / mixed_ref=1 / me_range=32 / chroma_me=1 / trellis=2 / 8x8dct=1 / cqm=0 / deadzone=21,11 / fast_pskip=1 / chroma_qp_offset=-2 / threads=6 / lookahead_threads=1 / sliced_threads=0 / nr=0 / decimate=0 / interlaced=0 / bluray_compat=0 / constrained_intra=0 / bframes=8 / b_pyramid=2 / b_adapt=2 / b_bias=0 / direct=3 / weightb=1 / open_gop=0 / weightp=2 / keyint=250 / keyint_min=25 / scenecut=40 / intra_refresh=0 / rc=2pass / mbtree=0 / bitrate=1555 / ratetol=1.0 / qcomp=0.60 / qpmin=0 / qpmax=69 / qpstep=4 / cplxblur=20.0 / qblur=0.5 / ip_ratio=1.40 / pb_ratio=1.30 / aq=1:1.00
Default : Да
Forced : Нет

Аудио
Идентификатор : 2
Формат : AC-3
Формат/Информация : Audio Coding 3
Коммерческое название : Dolby Digital
Идентификатор кодека : A_AC3
Продолжительность : 1 ч. 29 м.
Вид битрейта : Постоянный
Битрейт : 192 Кбит/сек
Каналы : 2 канала
ChannelLayout : L R
Частота : 48,0 КГц
Частота кадров : 31,250 кадров/сек (1536 SPF)
Битовая глубина : 16 бит
Метод сжатия : С потерями
Размер потока : 122 Мбайт (11%)
Default : Да
Forced : Нет
pb.wtf



Скачать Каин XVIII через торрент http://picplus.ru/img/1905/19/5d31d40e.png Скачать фильм Каин XVIII через торрент бесплантно в хорошем качестве Описание:Фильм по пьесе Е. Шварца "Голый король", переработанный впоследствии в сценарий «Два друга».Бродячие музыканты Ян и Жан ... 5 10 1
Торрент: Зарегистрирован [2019-05-19 10:21] · скачан: 17 раз
Статус: √ проверено
Размер: 1.09 GB
Как cкачать? Как скачать Каин XVIII через торрент | qTorrent

% Раздел Тема Автор DL S | L
Кино СССР [ 1.09 GB ] Каин XVIII [1963 СССР DVDRip от AVP Studio] AVP Studio Скачать
4 | 0

28-11-2019 20:33  

Отключить всю рекламу на сайте

    Дорогой пользователь! Огромная просьба, поблагодарите релизера, оцените раздачу и оставьте свои комментарий, если Вы скачали Каин XVIII через торрент бесплатно! Внесите свою лепту в развитие PiratBit!
    Комментировать посты могут только пользователи прошедшие не сложную регистрацию
    Показать сообщения:    

    Каин XVIII через торрент
    Скачать бесплатно Каин XVIII
    Каин XVIII скачать торрент
    Каин XVIII смотреть онлайн
    Cкачать фильм Каин XVIII бесплатно
    Каин XVIII скачать торрент в хорошем качестве
    Каин XVIII смотреть онлайн бесплатно в хорошем качестве


    Вы не можете начинать темы
    Вы не можете отвечать на сообщения
    Вы не можете редактировать свои сообщения
    Вы не можете удалять свои сообщения
    Вы не можете голосовать в опросах
    Вы не можете прикреплять файлы к сообщениям
    Вы можете скачивать файлы